EXSite.pl - Portal ze wszystkim Mamy tutaj wszystko

NIE MASZ JESZCZE KONTA? ZAREJESTRUJ SIĘ ZA DARMO!   
Przypomnij hasło X

The Double (2011) 720p.BRRip.x264.Feel-Free

Dodał: ampatinis 15 Styczeń 2012 21:46


The Double (2011) 720p.BRRip.x264.Feel-Free

The Double (2011) 720p.BRRip.x264.Feel-Free

The Double (2011) 720p.BRRip.x264.Feel-Free
gatunek: Dramat, Kryminał, Thriller, Szpiegowski
produkcja: USA
premiera: 28 października 2011 (świat)
reżyseria: Michael Brandt
scenariusz: Michael Brandt, Derek Haas

Historia rozpoczyna się zagadkowym morderstwem senatora, noszącym ślady sowieckiego zabójcy, od lat uznanego za zmarłego. Do rozwiązania tej sprawy przydzielony zostaje emerytowany śledczy CIA, który lata pracy poświęcił śledzeniu sowieckiego zbrodniarza. Jego partnerem zostaje młody agent FBI.

Source:BluRay.x264.DTS-HDChina Thanks!

Format : MPEG-4
Format profile : Base Media
Codec ID : isom
File size : 2.32 GiB
Duration : 1h 38mn
Overall bit rate : 3 373 Kbps

Video
ID : 1
Format : AVC
Format/Info : Advanced Video Codec
Format profile : High@L5.1
Format settings, CABAC : Yes
Format settings, ReFrames : 3 frames
Codec ID : avc1
Codec ID/Info : Advanced Video Coding
Duration : 1h 38mn
Bit rate mode : Variable
Bit rate : 3 000 Kbps
Maximum bit rate : 25.2 Mbps
Width : 1 280 pixels
Height : 544 pixels
Display aspect ratio : 2.35:1
Frame rate mode : Constant
Frame rate : 23.976 fps
Color space : YUV
Chroma subsampling : 4:2:0
Bit depth : 8 bits
Scan type : Progressive
Bits/(Pixel*Frame) : 0.180
Stream size : 2.01 GiB (87%)
Writing library : x264

Audio
ID : 2
Format : AAC
Format/Info : Advanced Audio Codec
Format version : Version 4
Format profile : LC
Format settings, SBR : No
Codec ID : 40
Duration : 1h 38mn
Bit rate mode : Variable
Bit rate : 446 Kbps
Maximum bit rate : 540 Kbps
Channel(s) : 6 channels
Channel positions : Front: L C R, Side: L R, LFE
Sampling rate : 48.0 KHz
Stream size : 314 MiB (13%)



The Double (2011) 720p.BRRip.x264.Feel-Free

The Double (2011) 720p.BRRip.x264.Feel-Free The Double (2011) 720p.BRRip.x264.Feel-Free

The Double (2011) 720p.BRRip.x264.Feel-Free
Uwaga! Linki nie zakodowane tylko dla zarejestrowanych użytkowników!

Nie masz konta? Zarejestruj się za darmo!
----------------
Links are not encoded only for registered users only! Plese login or register!



Informacje

Jeżeli chcesz skomentować artykuł musisz być zarejestrowany na stronie.