EXSite.pl - Portal ze wszystkim Mamy tutaj wszystko

NIE MASZ JESZCZE KONTA? ZAREJESTRUJ SIĘ ZA DARMO!   
Przypomnij hasło X

The Big Year (2011) DVDRip.XVID.AC3.HQ.Hive-CM8

Dodał: dixiluk 20 Styczeń 2012 15:00


The Big Year (2011) DVDRip.XVID.AC3.HQ.Hive-CM8
The Big Year (2011) DVDRip.XVID.AC3.HQ.Hive-CM8

Info:

Czas trwania: 1 godz. 40 min
Gatunek: Komedia
Premiera: 18 maja 2012
Rezyser: David Frankel
Scenariusz: Howard Franklin

Waga: 1.522 GB + Dane Naprawcze w partach po 400mb

The Big Year (2011) DVDRip.XVID.AC3.HQ.Hive-CM8


Film opowiada historię trzech rywalizujących ze sobą ornitologów. Biorą oni udział w corocznym konkursie obserwacji najrzadszych ptaków w Ameryce Północnej.

The Big Year (2011) DVDRip.XVID.AC3.HQ.Hive-CM8


The Big Year (2011) DVDRip.XVID.AC3.HQ.Hive-CM8

The Big Year (2011) DVDRip.XVID.AC3.HQ.Hive-CM8

The Big Year (2011) DVDRip.XVID.AC3.HQ.Hive-CM8

The Big Year (2011) DVDRip.XVID.AC3.HQ.Hive-CM8



The Big Year (2011) DVDRip.XVID.AC3.HQ.Hive-CM8

General
Complete name: The.Big.Year.2011.DVDRip.XVID.AC3.HQ.Hive-CM8.avi
Format: AVI
Format/Info: Audio Video Interleave
File size: 1.51 GiB
Duration: 1h 40mn
Overall bit rate: 2 155 Kbps
Writing application: Nandub v1.0rc2
Writing library: Nandub build 1853/release

Video
ID: 0
Format: MPEG-4 Visual
Format profile: Advanced Simple@L5
Format settings, BVOP: 2
Format settings, QPel: Yes
Format settings, GMC: No warppoints
Format settings, Matrix: Default (H.263)
Muxing mode: Packed bitstream
Codec ID: XVID
Codec ID/Hint: XviD
Duration: 1h 40mn
Bit rate: 1 697 Kbps
Width: 720 pixels
Height: 304 pixels
Display aspect ratio: 2.35:1
Frame rate: 23.976 fps
Color space: YUV
Chroma subsampling: 4:2:0
Bit depth: 8 bits
Scan type: Progressive
Compression mode: Lossy
Bits/(Pixel*Frame): 0.323
Stream size: 1.19 GiB (79%)
Writing library: XviD 1.2.1 (UTC 2008-12-04)

Audio
ID: 1
Format: AC-3
Format/Info: Audio Coding 3
Mode extension: CM (complete main)
Codec ID: 2000
Duration: 1h 40mn
Bit rate mode: Constant
Bit rate: 448 Kbps
Channel(s): 6 channels
Channel positions: Front: L C R, Side: L R, LFE
Sampling rate: 48.0 KHz
Bit depth: 16 bits
Compression mode: Lossy
Stream size: 321 MiB (21%)
Alignment: Split accross interleaves
Interleave, duration: 42 ms (1.00 video frame)
Interleave, preload duration: 500 ms


The Big Year (2011) DVDRip.XVID.AC3.HQ.Hive-CM8





Użytkownik VIP

ghwaySuper Uploader

#1 | Dodany: 21 Styczeń 2012 09:05

Wielki rok / The Big Year (2011) DVDRip.XviD-ALLiANCE

Dane techniczne:
Format : AVI at 979 Kb/s
Length : 700 MB for 1h 40 min. 2s 40ms

Video #0 : MPEG-4 Visual at 833 Kb/s
Aspect : 576 x 240 (2.400) at 23.976 fps

Audio #0 : MPEG Audio at 133 Kb/s
Infos : 2 kanały, 48,0 KHz


Download - 1 link:

Uploaded
Uwaga! Linki nie zakodowane tylko dla zarejestrowanych użytkowników!

Nie masz konta? Zarejestruj się za darmo!
----------------
Links are not encoded only for registered users only! Plese login or register!

Informacje

Jeżeli chcesz skomentować artykuł musisz być zarejestrowany na stronie.