EXSite.pl - Portal ze wszystkim Mamy tutaj wszystko

NIE MASZ JESZCZE KONTA? ZAREJESTRUJ SIĘ ZA DARMO!   
Przypomnij hasło X

Battleground (2012) PLSUBBED.BRRip.XviD-GHW / Napisy PL + RMVB

Dodał: ghway 21 Styczeń 2012 18:49



Battleground (2012) Napisy PL

PLSUBBED.BRRip.XviD-GHW



Battleground (2012) PLSUBBED.BRRip.XviD-GHW / Napisy PL + RMVB

Battleground (2012) PLSUBBED.BRRip.XviD-GHW / Napisy PL + RMVB
Reżyseria: Neil Mackay
Scenariusz: Neil Mackay, Sean McAulay
Produkcja: Kanada
Gatunek: Horror

Historia podstarzałego weterana wojennego, który niegdyś walczył w Wietnamie. Mężczyzna nie mogąc znieść wybryków kilku kryminalistów, postanawia wziąć sprawy w swoje ręce.


Dane techniczne:
Format : AVI at 1 105 Kbps
Length : 704 MiB for 1h 29mn 3s 88ms

Video #0 : MPEG-4 Visual at 968 Kbps
Aspect : 720 x 304 (2.368) at 23.976 fps

Audio #0 : MPEG Audio at 128 Kbps
Infos : 2 channels, 44.1 KHz

Napisy: PL, wtopione | tłumaczenie: ghway

V: NYDiC



Battleground (2012) PLSUBBED.BRRip.XviD-GHW / Napisy PL + RMVB


Download - 400 MB Parts:



Hellshare
Uwaga! Linki nie zakodowane tylko dla zarejestrowanych użytkowników!

Nie masz konta? Zarejestruj się za darmo!
----------------
Links are not encoded only for registered users only! Plese login or register!


Uploaded
Uwaga! Linki nie zakodowane tylko dla zarejestrowanych użytkowników!

Nie masz konta? Zarejestruj się za darmo!
----------------
Links are not encoded only for registered users only! Plese login or register!


Turbobit
Uwaga! Linki nie zakodowane tylko dla zarejestrowanych użytkowników!

Nie masz konta? Zarejestruj się za darmo!
----------------
Links are not encoded only for registered users only! Plese login or register!





Download - 1 link:



Hellshare
Uwaga! Linki nie zakodowane tylko dla zarejestrowanych użytkowników!

Nie masz konta? Zarejestruj się za darmo!
----------------
Links are not encoded only for registered users only! Plese login or register!


Uploaded
Uwaga! Linki nie zakodowane tylko dla zarejestrowanych użytkowników!

Nie masz konta? Zarejestruj się za darmo!
----------------
Links are not encoded only for registered users only! Plese login or register!


Turbobit
Uwaga! Linki nie zakodowane tylko dla zarejestrowanych użytkowników!

Nie masz konta? Zarejestruj się za darmo!
----------------
Links are not encoded only for registered users only! Plese login or register!




Wersja rmvb
Format : RealMedia at 464 Kbps
Length : 302 MiB for 1h 29mn 3s 49ms

Video #0 : RealVideo 4 at 400 Kbps
Aspect : 720 x 304 (2.368) at 23.976 fps

Audio #0 : Cooker at 64.1 Kbps
Infos : 2 channels, 44.1 KHz


Uwaga! Linki nie zakodowane tylko dla zarejestrowanych użytkowników!

Nie masz konta? Zarejestruj się za darmo!
----------------
Links are not encoded only for registered users only! Plese login or register!



Użytkownik VIP

ghwaySuper Uploader

#1 | Dodany: 21 Styczeń 2012 10:28

love
Użytkownik VIP

pawelo666Użytkownik

#2 | Dodany: 21 Styczeń 2012 13:16

film ten nie jest z tego roku tylko z 2011. błąd w opisie (lub celowe działanie) !!! am
Z każdym dniem wzrasta liczba ludzi,którzy mogą mnie cmoknąć w arsz ;)
Użytkownik VIP

tadzik281Użytkownik

#3 | Dodany: 21 Styczeń 2012 13:41

bully
ASUS M5A78LE
AMD 955 x4
1TB SAMSUNG
8x2GB 1600
ATI HD 5850 1GB
700 W ocz
Użytkownik VIP

ghwaySuper Uploader

#4 | Dodany: 21 Styczeń 2012 18:34

pawelo666,

Zajrzyj na IMDb.
Użytkownik VIP

agatka26Użytkownik

#5 | Dodany: 21 Styczeń 2012 19:28

ok
Użytkownik VIP

SHADOWMAN76VIP

#6 | Dodany: 21 Styczeń 2012 19:46

ok
Użytkownik VIP

wilk30Użytkownik

#7 | Dodany: 5 Luty 2012 06:37

Battleground(DVDRip)2011(Wtopione napisy PL)
Dane Techniczne
Nazwa pliku:  Battleground.2011.PLSUBBED.DVDRip.XviD-BiDA.avi
Rozmiar pliku: 701.2 MiB (735211520 bajtów)
Czas trwania: 01:25:24.280 (5124280 ms)
Ogólne bitrate pliku: 1 148 Kbps
Video FPS:  25.000
Video kodek: XviD
Video rozdzielczość:  720x304
Audio format: MPEG Audio
Audio bitrate:  117 Kbps



W jednym linku
Uwaga! Linki nie zakodowane tylko dla zarejestrowanych użytkowników!

Nie masz konta? Zarejestruj się za darmo!
----------------
Links are not encoded only for registered users only! Plese login or register!

Hasło
12345
Linki pad?y napisz PW zrobi? reupload.
Użytkownik VIP

unclef3st3rUżytkownik

#8 | Dodany: 29 Kwiecień 2012 13:02

Battleground (2011) PLSUBBED.DVDRip.XviD-BiDA

* Dane techniczne *
General
Format                         : AVI
Format/Info                    : Audio Video Interleave
File size                      : 701 MiB
Duration                       : 1h 25mn
Overall bit rate mode          : Variable
Overall bit rate               : 1 148 Kbps
Writing application            : VirtualDubMod 1.5.10.2 (build 2542/release)
Writing library                : VirtualDubMod build 2542/release

Video
ID                             : 0
Format                         : MPEG-4 Visual
Format profile                 : Advanced Simple@L5
Format settings, BVOP          : 2
Format settings, QPel          : No
Format settings, GMC           : No warppoints
Format settings, Matrix        : Default (H.263)
Muxing mode                    : Packed bitstream
Codec ID                       : XVID
Codec ID/Hint                  : XviD
Duration                       : 1h 25mn
Bit rate                       : 1 018 Kbps
Width                          : 720 pixels
Height                         : 304 pixels
Display aspect ratio           : 2.35:1
Frame rate                     : 25.000 fps
Color space                    : YUV
Chroma subsampling             : 4:2:0
Bit depth                      : 8 bits
Scan type                      : Progressive
Compression mode               : Lossy
Bits/(Pixel*Frame)             : 0.186
Stream size                    : 622 MiB (89%)
Writing library                : XviD 62

Audio
ID                             : 1
Format                         : MPEG Audio
Format version                 : Version 1
Format profile                 : Layer 3
Mode                           : Joint stereo
Mode extension                 : MS Stereo
Codec ID                       : 55
Codec ID/Hint                  : MP3
Duration                       : 1h 25mn
Bit rate mode                  : Variable
Bit rate                       : 117 Kbps
Channel(s)                     : 2 channels
Sampling rate                  : 48.0 KHz
Compression mode               : Lossy
Stream size                    : 71.2 MiB (10%)
Alignment                      : Aligned on interleaves
Interleave, duration           : 24 ms (0.60 video frame)
Interleave, preload duration   : 531 ms
Writing library                : LAME3.98.2
Language                       : English


* Opis uploadu *
Rozmiar: 701 MB
Wersja językowa: angielska
Napisy: wtopione w obraz
Kompresja: brak
Hasło: brak


* Download *
http://download.hellshare.pl/battleground-2011-plsubbed-dvdrip-xvid-bida-avi/6994986/

Użytkownik VIP

LogIc1215Użytkownik

#9 | Dodany: 6 Październik 2012 19:53

Z zimną krwią / Battleground (2012) PL BRRip XviD-CAMBiO / Lektor PL

Format : AVI at 1.092 Kb/s
Length : 695 MB for 1h 29 min. 3s 88ms
Video #0 : MPEG-4 Visual at 954 Kb/s
Aspect : 640 x 272 (2.353) at 23.976 fps
Audio #0 : MPEG Audio at 128 Kb/s
Infos : 2 kanały, 44,1 KHz

Lektor polski profesjonalny


Uwaga! Linki nie zakodowane tylko dla zarejestrowanych użytkowników!

Nie masz konta? Zarejestruj się za darmo!
----------------
Links are not encoded only for registered users only! Plese login or register!

Informacje

Jeżeli chcesz skomentować artykuł musisz być zarejestrowany na stronie.