EXSite.pl - Portal ze wszystkim Mamy tutaj wszystko

NIE MASZ JESZCZE KONTA? ZAREJESTRUJ SIĘ ZA DARMO!   
Przypomnij hasło X

Prozopagnozja / Faces in The Crowd (2011) DVDRip.Xvid-BHRG / Napisy PL

Dodał: SkyRun 24 Styczeń 2012 15:41


Prozopagnozja / Faces in The Crowd (2011) DVDRip.Xvid-BHRG / Napisy PL

Prozopagnozja / Faces in The Crowd (2011) DVDRip.Xvid-BHRG / Napisy PL


..:: OPIS/INFO ::..

czas trwania: 1 godz. 42 min.
gatunek: Horror, Thriller
premiera: 25 października 2011 (świat)
reżyseria: Julien Magnat
scenariusz: Julien Magnat

W "Faces in the Crowd" Jovovich wcieli się w rolę młodej kobiety, której udaje się przeżyć atak seryjnego mordercy. Dziewczyna budzi się w szpitalu, ale w wyniku urazu głowy cierpi na specyficzną amnezję, która objawia się tym, że w ogóle nie rozpoznaje twarzy. Musi poradzić sobie w świecie, w którym twarze zacierają się w jej pamięci natychmiast po tym, jak tylko straci je z oczu.


..:: DANE TECHNICZNE ::..

Nazwa Release:Prozopagnozja / Faces in The Crowd (2011) DVDRip.Xvid-BHRG
Waga:700mB
Archiwum:RAR
Zawartość:AVI
Dane naprawcze:1%




ViDEO:Xvid, 876kbps, 650x256, 25.000fps
AUDiO:Mp3, 128kbps, 2chnls
LANGUAGE:English
SUBS:Tak w linku


..:: Sprawdź jakość filmu: Wersja DEMO ::..


www18.zippyshare.com/v/11860369/file.html


..:: SCREENY ::..



..:: DOWNLOAD ::..


..:: NAPISY PL ::..

Uwaga! Linki nie zakodowane tylko dla zarejestrowanych użytkowników!

Nie masz konta? Zarejestruj się za darmo!
----------------
Links are not encoded only for registered users only! Plese login or register!


..:: 3 SERWERY. MOŻNA POBIERAĆ NA PRZEMIAN | 500 MB PARTS ::..


..:: HELLSHARE ::..

Uwaga! Linki nie zakodowane tylko dla zarejestrowanych użytkowników!

Nie masz konta? Zarejestruj się za darmo!
----------------
Links are not encoded only for registered users only! Plese login or register!


..:: RAPIDGATOR ::..

Uwaga! Linki nie zakodowane tylko dla zarejestrowanych użytkowników!

Nie masz konta? Zarejestruj się za darmo!
----------------
Links are not encoded only for registered users only! Plese login or register!


..:: UPLOADED ::..

Uwaga! Linki nie zakodowane tylko dla zarejestrowanych użytkowników!

Nie masz konta? Zarejestruj się za darmo!
----------------
Links are not encoded only for registered users only! Plese login or register!


..:: 1 LINK / ONLY LINK::..


..:: HELLSHARE ::..

Uwaga! Linki nie zakodowane tylko dla zarejestrowanych użytkowników!

Nie masz konta? Zarejestruj się za darmo!
----------------
Links are not encoded only for registered users only! Plese login or register!


1% danych naprawczych
Mój upload | My Upload
Bez hasła | No password

Użytkownik VIP

SkyRunUżytkownik

#1 | Dodany: 24 Styczeń 2012 15:42

ok
Użytkownik VIP

darkk`Użytkownik

#2 | Dodany: 24 Styczeń 2012 15:46

Faces in The Crowd (2011) PLSUBBED.BRRip.XviD-FURiA / Napisy PL

DANE TECHNICZNE:
Format : AVI at 949 Kbps
Length : 696 MiB for 1h 42mn 32s 152ms
Video : MPEG-4 Visual at 808 Kbps
Aspect : 720 x 304 (2.368) at 23.976 fps
Audio : MPEG Audio at 128 Kbps
Infos : 2 channels, 48.0 KHz


OPIS UPLOADU:
Wielkość Uploadu: 690 MB
Rodzaj Kompresji: rar
Zawartość Uploadu: Plik .avi
Wersja Językowa: angielska
Napisy: PL, wtopione
Dane Naprawcze: brak
Hasło : brak hasła


SCREENY:



DOWNLOAD

Uwaga! Linki nie zakodowane tylko dla zarejestrowanych użytkowników!

Nie masz konta? Zarejestruj się za darmo!
----------------
Links are not encoded only for registered users only! Plese login or register!
Użytkownik VIP

radinho2Użytkownik

#3 | Dodany: 24 Styczeń 2012 15:51

Zawrotne prędkości na tym ul.to są, aż dysk nie wyrabia z zapisywaniem.
Phenom II x4 955 3,2GHz, MA790XT-UD4P, 4GB DDR3, Radeon HD4890 1GB, bequiet! 550W
Użytkownik VIP

SkyRunUżytkownik

#4 | Dodany: 24 Styczeń 2012 15:55

radinho2,
No trochę loler Ale już nie ma gdzie uploadować recourse
Użytkownik VIP

makroludUżytkownik

#5 | Dodany: 24 Styczeń 2012 22:18

0ooooooooooooooo!Panika?

zadne linki nie działają!
Użytkownik VIP

SkyRunUżytkownik

#6 | Dodany: 24 Styczeń 2012 22:29

makrolud,
jak to nie działają jak działają brawo
Użytkownik VIP

czorny328Użytkownik

#7 | Dodany: 25 Styczeń 2012 16:51

Nie wypakuje bez hasła
Użytkownik VIP

bogdan53Użytkownik

#8 | Dodany: 22 Kwiecień 2012 00:07

Prozopagnozja / Faces in The Crowd (2011)BRRip.RMVB NAPISY PL

Format : RealMedia
      File size : 356 MiB
      Duration : 1h 42mn
      Overall bit rate : 469 Kbps
   Video #1
      ID : 1
      Format : RealVideo 4
      Codec ID : RV40
      Codec ID/Info : Based on AVC (H.264), Real Player 9
      Duration : 1h 42mn
      Bit rate : 405 Kbps
      Width : 720 pixels
      Height : 304 pixels
      Display aspect ratio : 2.35:1
      Frame rate : 23.000 fps
      Resolution : 12 bits
      Bits/(Pixel*Frame) : 0.081
      Stream size : 297 MiB (84%)
   Audio #0
      ID : 0
      Format : Cooker
      Codec ID : cook
      Codec ID/Info : Based on G.722.1, Real Player 6
      Duration : 1h 42mn
      Bit rate : 64.1 Kbps
      Channel(s) : 2 channels
      Sampling rate : 44.1 KHz
      Resolution : 16 bits
      Stream size : 47.0 MiB (13%)


http://download.hellshare.cz/prozopagnozja-2011-plsubbed-brrip-xvid-b53-rmvb/6829396/
Homo homini lupus est.

Informacje

Jeżeli chcesz skomentować artykuł musisz być zarejestrowany na stronie.