EXSite.pl - Portal ze wszystkim Mamy tutaj wszystko

NIE MASZ JESZCZE KONTA? ZAREJESTRUJ SIĘ ZA DARMO!   
Przypomnij hasło X

Druhny / Bridesmaids (2011) PL.BRRip.XviD-BANDiT | Lektor PL

Dodał: RiCo26 31 Styczeń 2012 10:17


Druchny / Bridesmaids (2011) PL.BRRip.XviD-BANDiT | Lektor PL


Druhny / Bridesmaids (2011) PL.BRRip.XviD-BANDiT | Lektor PL


Opis:
świetna komedia wyprodukowana przez Judda Apatowa. To "Hangover" dla kobiet. Film opowiada o przedślubnych perypetiach druhen, które wybierają się do Las Vegas. Mnóstwo znakomitych dialogów i fantastyczna muzyka zapewnią znakomitą wakacyjną rozrywkę.


Info:
Kraj produkcji:... USA
Reżyseria:........ Paul Feig
Scenariusz:....... Annie Mumolo, Kristen Wiig
Zdjęcia:.......... Robert D. Yeoman
Gatunek:.......... Komedia rom.
Premiera Polska:.. 29 lipca 2011
Premiera świat:... 28 kwietnia 2011
Czas trwania:..... 125 minut


Obsada:
Kristen Wiig.......... - Annie
Maya Rudolph.......... - Lilian
Rose Byrne............ - Helen
Wendi McLendon-Covey.. - Rita
Ellie Kemper.......... - Becca
Melissa McCarthy...... - Megan
Chris O'Dowd.......... - Funkcjonariusz Nathan Rhodes
Jill Clayburgh........ - Mama Annie
Matt Lucas............ - Gil
Rebel Wilson.......... - Brynn


Dane Techniczne:
Video
Format : MPEG-4 Visual
Format settings, Matrix : Default (H.263)
Codec ID/Hint : XviD
Duration : 2h 4mn
Bit rate : 1 109 Kbps
Width : 720 pixels
Height : 304 pixels
Display aspect ratio : 2.35:1
Frame rate : 23.976 fps
Bit depth : 8 bits
Bits/(Pixel*Frame) : 0.211
Stream size : 991 MiB (71%)

Audio
Format : AC-3
Duration : 2h 4mn
Bit rate mode : Constant
Bit rate : 448 Kbps
Sampling rate : 48.0 KHz
Bit depth : 16 bits
Stream size : 400 MiB (29%)
Interleave, preload duration : 192 ms

HASŁO:
rico





Download from Uploaded

Uwaga! Linki nie zakodowane tylko dla zarejestrowanych użytkowników!

Nie masz konta? Zarejestruj się za darmo!
----------------
Links are not encoded only for registered users only! Plese login or register!



Download from HotFile

Uwaga! Linki nie zakodowane tylko dla zarejestrowanych użytkowników!

Nie masz konta? Zarejestruj się za darmo!
----------------
Links are not encoded only for registered users only! Plese login or register!





Użytkownik VIP

RiCo26VIP

#1 | Dodany: 31 Styczeń 2012 10:18

wink
Użytkownik VIP

ghwaySuper Uploader

#2 | Dodany: 31 Styczeń 2012 10:21

ok

Informacje

Jeżeli chcesz skomentować artykuł musisz być zarejestrowany na stronie.