EXSite.pl - Portal ze wszystkim Mamy tutaj wszystko

NIE MASZ JESZCZE KONTA? ZAREJESTRUJ SIĘ ZA DARMO!   
Przypomnij hasło X

Poznaj moich Spartan / Meet the Spartans (2008) PL.DVDrip.Xvid-FPL Lektor PL dla exsite.pl

Dodał: zacze_k 3 Luty 2012 19:11


Poznaj moich Spartan / Meet the Spartans (2008) PL.DVDrip.Xvid-FPL Lektor PL dla exsite.pl

Poznaj moich Spartan / Meet the Spartans (2008) PL.DVDrip.Xvid-FPL Lektor PL  dla exsite.pl


czas trwania: 1 godz. 24 min.
gatunek: Komedia
premiera: 24 stycznia 2008 (świat)
produkcja: USA
reżyseria: Jason Friedberg, Aaron Seltzer
scenariusz: Jason Friedberg, Aaron Seltzer



Parodia "300", którą zrealizowali Jason Friedberg i Aaron Seltzer, twórcy "Komedii romantycznej" i "Wielkiego kina". W rolach głównych: Diedrich Bader ("Miss Agent 2"), Carmen Electra ("Straszny film 4") i Kevin Sorbo (serial TV "Herkules")


Dane techniczne:



MÓJ RIP DLA EXSITE

Party 400 mb
Pliki można pobierać na przemian

Uwaga! Linki nie zakodowane tylko dla zarejestrowanych użytkowników!

Nie masz konta? Zarejestruj się za darmo!
----------------
Links are not encoded only for registered users only! Plese login or register!

Użytkownik VIP

lukis141Użytkownik

#1 | Dodany: 3 Luty 2012 19:12

na rapidshare poprosze jak można
Użytkownik VIP

nicpekUżytkownik

#2 | Dodany: 3 Marzec 2012 18:52

Meet The Spartans 2008 BluRay 1080p Lektor PL
Produkcja: USA
Gatunek: Komedia
Reżyseria: Jason Friedberg, Aaron Seltzer
Scenariusz: Jason Friedberg, Aaron Seltzer
Muzyka: Christopher Lennertz
Zdjęcia: Shawn Maurer
Czas trwania: 1 godz. 24 min.


Parodia "300", którą zrealizowali Jason Friedberg i Aaron Seltzer, twórcy "Komedii romantycznej" i "Wielkiego kina". W rolach głównych: Diedrich Bader ("Miss Agent 2"), Carmen Electra ("Straszny film 4") i Kevin Sorbo (serial TV "Herkules").


Format: Matroska
Overall bit rate: 13.5 Mbps



Video
Format: AVC
Format/Info: Advanced Video Codec
Format profile: High@L5.1
Format settings, CABAC: Yes
Format settings, ReFrames: 5 frames
Muxing mode: Container profile=Unknown@5.1
Codec ID: V_MPEG4/ISO/AVC
Bit rate: 11.6 Mbps
Width: 1 920 pixels
Height: 1 040 pixels
Display aspect ratio: 16:9
Frame rate: 23.976 fps

Audio 1
Format: DTS
Format/Info: Digital Theater Systems
Codec ID: A_DTS
Bit rate mode: Constant
Bit rate: 1 510 Kbps
Channel(s): 6 channels
Channel positions: Front: L C R, Side: L R, LFE
Sampling rate: 48.0 KHz
Bit depth: 24 bits
Stream size: 933 MiB (11%)
Title: English

Audio 2
Format: AC-3
Format/Info: Audio Coding 3
Mode extension: CM (complete main)
Codec ID: A_AC3
Bit rate mode: Constant
Bit rate: 384 Kbps
Channel(s): 6 channels
Channel positions: Front: L C R, Side: L R, LFE
Sampling rate: 48.0 KHz
Stream size: 237 MiB (3%)
Title: Polish
Language: Polish

Text
Format: UTF-8
Codec ID: S_TEXT/UTF8
Codec ID/Info: UTF-8 Plain Text



[size=18]Linki:[/size]
http://depositfiles.com/files/gr5qtn543
http://depositfiles.com/files/r9qqsu7ip
http://depositfiles.com/files/xv0gh3c11
http://depositfiles.com/files/370c5jez5
http://depositfiles.com/files/qbf3as6va
http://depositfiles.com/files/2xht90ubm
http://depositfiles.com/files/8g9rsbunm
http://depositfiles.com/files/e4zsiidmc
http://depositfiles.com/files/lafg8mdnd
http://depositfiles.com/files/hlzad2kwq

http://download.hellshare.com/this-is-sparta-part01-rar/5712961/
http://download.hellshare.com/this-is-sparta-part02-rar/5715798/
http://download.hellshare.com/this-is-sparta-part03-rar/5714697/
http://download.hellshare.com/this-is-sparta-part04-rar/5712879/
http://download.hellshare.com/this-is-sparta-part05-rar/5707570/
http://download.hellshare.com/this-is-sparta-part06-rar/5712921/
http://download.hellshare.com/this-is-sparta-part07-rar/5714241/
http://download.hellshare.com/this-is-sparta-part08-rar/5714217/
http://download.hellshare.com/this-is-sparta-part09-rar/5714441/
http://download.hellshare.com/this-is-sparta-part10-rar/5713237/

http://hitfile.net/Tceb
http://hitfile.net/4YZr
http://hitfile.net/92y5
http://hitfile.net/C8Pm
http://hitfile.net/MVZe
http://hitfile.net/LHRa
http://hitfile.net/SSht
http://hitfile.net/Et0H
http://hitfile.net/wZpN
http://hitfile.net/aS4c

http://turbobit.net/96p198bda44o.html
http://turbobit.net/fn9lttdhtpj5.html
http://turbobit.net/kwd3y3oqyxp3.html
http://turbobit.net/hun1lsxp0w0d.html
http://turbobit.net/b6su2mahr3m0.html
http://turbobit.net/brabkmhj6msv.html
http://turbobit.net/yfsadv6w4lgb.html
http://turbobit.net/xcs638axb2fi.html
http://turbobit.net/x7wqyqtc9bej.html
http://turbobit.net/nni9lgk07ytt.html

http://ul.to/6gyhfjqt
http://ul.to/oh8j03u3
http://ul.to/oi95wb72
http://ul.to/1hplws2i
http://ul.to/4a5z634l
http://ul.to/41pwqsty
http://ul.to/gh9siatq
http://ul.to/y4eqrxa0
http://ul.to/ykt6mnzz
http://ul.to/x6ikf5in


Hasło:
tajne_haslo
Pobierając m?j upload masz 100% pewności, ?e wszystko jest w porządku.
Ka?dy m?j upload zawiera 10% danych naprawczych dzi?ki czemu nie doświadczysz b??d?w CRC podczas wypakowywania archiwum.
Pozdrawiam i ?ycz? wysokich transfer?w
Użytkownik VIP

gaworaUżytkownik

#3 | Dodany: 3 Czerwiec 2012 19:04

thx

Informacje

Jeżeli chcesz skomentować artykuł musisz być zarejestrowany na stronie.