EXSite.pl - Portal ze wszystkim Mamy tutaj wszystko

NIE MASZ JESZCZE KONTA? ZAREJESTRUJ SIĘ ZA DARMO!   
Przypomnij hasło X

Playback (2012) HDRiP.AC3-2.0.XviD-SiC

Dodał: niedzwiedzx 4 Luty 2012 10:44


Playback (2012) HDRiP.AC3-2.0.XviD-SiC


Playback (2012) HDRiP.AC3-2.0.XviD-SiC


Harlan Diehl bez żadnego powodu morduje całą swoją rodzinę i uwiecznia to zabójstwo na taśmie. 15 lat później, grupka licealistów przypadkowo natrafia na tą przerażającą historię. Nieświadomie, ujawniając mroczny sekret, uwalniają złego ducha, który niszczy swe ofiary przez odtwarzanie kasety i nie cofnie się przed niczym, dopóki nie znajdzie swego prawdziwego spadkobiercy.

INFO:


Bez Hasła / No Pass


Playback (2012) HDRiP.AC3-2.0.XviD-SiC

Playback (2012) HDRiP.AC3-2.0.XviD-SiC

Uwaga! Linki nie zakodowane tylko dla zarejestrowanych użytkowników!

Nie masz konta? Zarejestruj się za darmo!
----------------
Links are not encoded only for registered users only! Plese login or register!

Playback (2012) HDRiP.AC3-2.0.XviD-SiC

Playback (2012) HDRiP.AC3-2.0.XviD-SiC

Uwaga! Linki nie zakodowane tylko dla zarejestrowanych użytkowników!

Nie masz konta? Zarejestruj się za darmo!
----------------
Links are not encoded only for registered users only! Plese login or register!



Użytkownik VIP

ghwaySuper Uploader

#1 | Dodany: 4 Luty 2012 10:44

Playback (2012) HDRiP.AC3-2.0.XviD-SiC

Dane techniczne:
Release: Playback (2012) HDRiP.AC3-2.0.XviD-SiC
Rozmiar: 1.36 GB
Video: XVID | 1714 Kbps | 720 x 400 | 23.976 fps
Audio: AC3 | 256 Kbps | 2 kanały | 48.0 KHz
Czas trwania: 1h 38mn


Download - 400 MB Parts:

Hellshare
Uwaga! Linki nie zakodowane tylko dla zarejestrowanych użytkowników!

Nie masz konta? Zarejestruj się za darmo!
----------------
Links are not encoded only for registered users only! Plese login or register!


Uplaoded
Uwaga! Linki nie zakodowane tylko dla zarejestrowanych użytkowników!

Nie masz konta? Zarejestruj się za darmo!
----------------
Links are not encoded only for registered users only! Plese login or register!


Turbobit
Uwaga! Linki nie zakodowane tylko dla zarejestrowanych użytkowników!

Nie masz konta? Zarejestruj się za darmo!
----------------
Links are not encoded only for registered users only! Plese login or register!



Download - 1 link:

Hellshare
Uwaga! Linki nie zakodowane tylko dla zarejestrowanych użytkowników!

Nie masz konta? Zarejestruj się za darmo!
----------------
Links are not encoded only for registered users only! Plese login or register!


Turbobit
Uwaga! Linki nie zakodowane tylko dla zarejestrowanych użytkowników!

Nie masz konta? Zarejestruj się za darmo!
----------------
Links are not encoded only for registered users only! Plese login or register!
Użytkownik VIP

niedzwiedzxVIP

#2 | Dodany: 4 Luty 2012 11:02

Ten zielony suwaczek to status dostępności linków, jeśli będzie czerwony tzn. ze linki zostały usunięte :)
Jeśli chcesz rozśmieszy? Boga, opowiedz mu o twoich planach na przysz?oś?.
Użytkownik VIP

eska0304Użytkownik

#3 | Dodany: 4 Luty 2012 19:58

thx
Użytkownik VIP

ampatinisUżytkownik

#4 | Dodany: 7 Luty 2012 19:38

Playback (2012) HDRiP.AC3-2.0.XviD-SiC

MediaInfo:
General
Complete name : Playback.2012.HDRiP.AC3-2.0.XviD-SiC.avi
Format : AVI
Format/Info : Audio Video Interleave
File size : 1.36 GiB
Duration : 1h 38mn
Overall bit rate : 1 977 Kbps

Video
ID : 0
Format : MPEG-4 Visual
Format profile : Advanced Simple@L5
Format settings, BVOP : 2
Format settings, QPel : No
Format settings, GMC : No warppoints
Format settings, Matrix : Default (H.263)
Muxing mode : Packed bitstream
Codec ID : XVID
Codec ID/Hint : XviD
Duration : 1h 38mn
Bit rate : 1 714 Kbps
Width : 720 pixels
Height : 400 pixels
Display aspect ratio : 16:9
Frame rate : 23.976 fps
Color space : YUV
Chroma subsampling : 4:2:0
Bit depth : 8 bits
Scan type : Progressive
Compression mode : Lossy
Bits/(Pixel*Frame) : 0.248
Stream size : 1.18 GiB (87%)
Writing library : XviD 1.1.2 (UTC 2006-11-01)

Audio
ID : 1
Format : AC-3
Format/Info : Audio Coding 3
Mode extension : CM (complete main)
Codec ID : 2000
Duration : 1h 38mn
Bit rate mode : Constant
Bit rate : 256 Kbps
Channel(s) : 2 channels
Channel positions : Front: L R
Sampling rate : 48.0 KHz
Bit depth : 16 bits
Compression mode : Lossy
Stream size : 180 MiB (13%)
Alignment : Aligned on interleaves
Interleave, duration : 64 ms (1.53 video frames)
Interleave, preload duration : 192 ms
Title : playback




Uwaga! Linki nie zakodowane tylko dla zarejestrowanych użytkowników!

Nie masz konta? Zarejestruj się za darmo!
----------------
Links are not encoded only for registered users only! Plese login or register!

Informacje

Jeżeli chcesz skomentować artykuł musisz być zarejestrowany na stronie.