EXSite.pl - Portal ze wszystkim Mamy tutaj wszystko

NIE MASZ JESZCZE KONTA? ZAREJESTRUJ SIĘ ZA DARMO!   
Przypomnij hasło X

Elita zabójców / Killer Elite (2011) 480.BRRip.XviD.AC3.PL.SUB.G.M.T-Maximus *NAPiSY PL*

Dodał: Motyleczek 8 Luty 2012 10:45





Elita zabójców / Killer Elite (2011) 480.BRRip.XviD.AC3.PL.SUB.G.M.T-Maximus *NAPiSY PL*

Elita zabójców / Killer Elite (2011) 480.BRRip.XviD.AC3.PL.SUB.G.M.T-Maximus  *NAPiSY PL*


reżyseria: Gary McKendry
scenariusz: Gary McKendry, Matt Sherring
premiera: 7 października 2011 (Polska) 22 września 2011 (świat)
produkcja: Australia, USA
gatunek: Thriller, Akcja


Film oparty na prawdziwych wydarzeniach, opowiadający historię byłych członków brytyjskich sił specjalnych, na których poluje oddział zawodowych morderców. Jason Statham wcielający się w rolę komandosa, aby uratować swojego przyjaciela rezygnuje z emerytury.

Elita zabójców / Killer Elite (2011) 480.BRRip.XviD.AC3.PL.SUB.G.M.T-Maximus *NAPiSY PL*




Format : AVI
Format/Info : Audio Video Interleave
Format profile : OpenDML
File size : 2.11 GiB
Duration : 1h 56mn
Overall bit rate : 2593 Kbps
Writing application : VirtualDubMod 1.5.10.2 (build 2540/release)
Writing library : VirtualDubMod build 2540/release

Video
Format : MPEG-4 Visual
Format profile : Streaming Video@L1
Format settings, BVOP : Yes
Format settings, QPel : No
Format settings, GMC : No warppoints
Format settings, Matrix : Default
Muxing mode : Packet Bitstream
Codec ID : XVID
Codec ID/Hint : XviD
Duration : 1h 56mn
Bit rate : 2133 Kbps
Width : 720 pixels
Height : 400 pixels
Display aspect ratio : 16/9
Frame rate : 23.976 fps
Resolution : 8 bits
Colorimetry : 4:2:0
Scan type : Progressive
Bits/(Pixel*Frame) : 0.309
Stream size : 1.74 GiB (82%)
Writing library : XviD 50

Audio
Format : AC-3
Format/Info : Audio Coding 3
Codec ID : 2000
Duration : 1h 56mn
Bit rate mode : Constant
Bit rate : 448 Kbps
Channel(s) : 6 channels
Channel positions : Front: L C R, Rear: L R, LFE
Sampling rate : 48.0 KHz
Stream size : 374 MiB (17%)
Alignment : Split accross interleaves
Interleave, duration : 42 ms (1.00 video frame)
Interleave, preload duration : 500 ms


Uwaga! Linki nie zakodowane tylko dla zarejestrowanych użytkowników!

Nie masz konta? Zarejestruj się za darmo!
----------------
Links are not encoded only for registered users only! Plese login or register!



Użytkownik VIP

BlodVarkVIP Uploader

#1 | Dodany: 8 Luty 2012 10:46

ok
Użytkownik VIP

MotyleczekUploader

#2 | Dodany: 8 Luty 2012 10:47

brawo

Informacje

Jeżeli chcesz skomentować artykuł musisz być zarejestrowany na stronie.