EXSite.pl - Portal ze wszystkim Mamy tutaj wszystko

NIE MASZ JESZCZE KONTA? ZAREJESTRUJ SIĘ ZA DARMO!   
Przypomnij hasło X

Ghost Rider Extended Version (2007) 720p.x264-DTRG

Dodał: ampatinis 15 Luty 2012 09:30


Ghost Rider Extended Version (2007) 720p.x264-DTRG

Ghost Rider Extended Version (2007) 720p.x264-DTRG

Ghost Rider Extended Version (2007) 720p.x264-DTRG
INFORMACJE
premiera: 23 lutego 2007 (Polska) 2007-02-23 14 lutego 2007 (świat) 2007-02-14
produkcja: Australia, USA
gatunek: Fantasy, Akcja

OPIS
Johnny Blaze, motocyklista-kaskader, podpisuje pakt z diabłem. Za cenę życia swego umierającego ojca, oddaje Mefistofelesowi swoją duszę. Kilka lat później ten sam diabeł składa mu propozycję: uwolni jego duszę, jeżeli Blaze stanie się Ghost Riderem, płonącym szkieletem, który będzie wyruszał co noc w poszukiwaniu grzeszników. Jednakże głównym celem dla Ghost Ridera ma być Blackheart, syn Mefistofelesa, który planuje konkurować z ojcem i stworzyć jeszcze gorsze miejsce niż piekło...

Source - Ghost.Rider.Extended.Version.2007.720p.x264 Thanks

Complete name : F:\MOVIES 720P DTRG\Ghost.Rider.Extended.Version.2007.720p.x264.DTRG.mkv
Format : Matroska
File size : 1.54 GiB
Duration : 2h 3mn
Overall bit rate : 1 784 Kbps
Movie name : Ghost.Rider.2007.720p.x264.DTRG
Encoded date : UTC 2012-02-13 22:00:11
Writing application : mkvmerge v5.2.1 ('A Far Off Place') built on Jan 2 2012 23:21:10

Video
ID : 1
Format : AVC
Format/Info : Advanced Video Codec
Format profile : High@L3.1
Format settings, CABAC : Yes
Format settings, ReFrames : 4 frames
Muxing mode : Container profile=Unknown@3.1
Codec ID : V_MPEG4/ISO/AVC
Duration : 2h 3mn
Bit rate : 1 365 Kbps
Nominal bit rate : 1 400 Kbps
Width : 1 280 pixels
Height : 528 pixels
Display aspect ratio : 2.40:1
Frame rate mode : Variable
Frame rate : 23.976 fps
Resolution : 8 bits
Colorimetry : 4:2:0
Scan type : Progressive
Bits/(Pixel*Frame) : 0.084
Stream size : 1.18 GiB (76%)
Writing library : x264 core 112

Audio
ID : 2
Format : AC-3
Format/Info : Audio Coding 3
Format_Settings_ModeExtension : CM (complete main)
Codec ID : A_AC3
Duration : 2h 3mn
Bit rate mode : Constant
Bit rate : 384 Kbps
Channel(s) : 6 channels
Channel positions : Front: L C R, Side: L R, LFE
Sampling rate : 48.0 KHz
Stream size : 339 MiB (22%)


Ghost Rider Extended Version (2007) 720p.x264-DTRG

Ghost Rider Extended Version (2007) 720p.x264-DTRG Ghost Rider Extended Version (2007) 720p.x264-DTRG

Ghost Rider Extended Version (2007) 720p.x264-DTRG
Uwaga! Linki nie zakodowane tylko dla zarejestrowanych użytkowników!

Nie masz konta? Zarejestruj się za darmo!
----------------
Links are not encoded only for registered users only! Plese login or register!



Użytkownik VIP

DrarakiUżytkownik

#1 | Dodany: 15 Luty 2012 09:48

Zapraszam :) Aż ponad 300 filmów do pobrania z HellShare:
Uwaga! Linki nie zakodowane tylko dla zarejestrowanych użytkowników!

Nie masz konta? Zarejestruj się za darmo!
----------------
Links are not encoded only for registered users only! Plese login or register!

Informacje

Jeżeli chcesz skomentować artykuł musisz być zarejestrowany na stronie.