EXSite.pl - Portal ze wszystkim Mamy tutaj wszystko

NIE MASZ JESZCZE KONTA? ZAREJESTRUJ SIĘ ZA DARMO!   
Przypomnij hasło X

Przygody Tintina / The Adventures of Tintin (2011) 720p.BluRay.x264-DTRG

Dodał: ampatinis 22 Luty 2012 17:45


Przygody Tintina / The Adventures of Tintin (2011) 720p.BluRay.x264-DTRG

Przygody Tintina / The Adventures of Tintin (2011) 720p.BluRay.x264-DTRG

Przygody Tintina / The Adventures of Tintin (2011) 720p.BluRay.x264-DTRG
czas trwania: 1 godz. 47 min.
gatunek: Animacja, Familijny, Przygodowy
premiera: 4 listopada 2011 (Polska) 22 października 2011 (świat)
produkcja: Nowa Zelandia, USA
reżyseria: Steven Spielberg
scenariusz: Joe Cornish, Edgar Wright


Film zrealizowany na podstawie klasycznego komiksu belgijskiego pisarza - artysty Herg?, wydrukowanego w ponad 200 milionów egzemplarzy, tłumaczonego na 50 języków. Nic nie jest w stanie powstrzymać śmiałego reportera śledczego TINTINA, młodego bohatera ponadczasowego komiksu, przed rozwiązaniem tajemnic świata. W pierwszym z trzech planowanych filmów ten nieustraszony reporter, jego niesforny, ale oddany pies Snowy oraz skłonny do bijatyk kapitan Haddock wyruszają, aby odnaleźć od dawna zaginiony statek, który kryje tajemnicę starożytnego skarbu... i klucz do odwiecznej klątwy.

Source - The Adventures of Tintin 2011 1080p BluRay x264-MaxHD Thanks


Complete name : The.Adventures.of.Tintin.2011.720p.BluRay.x264-DTRG.mkv
Format : Matroska
Format version : Version 2
File size : 1.41 GiB
Duration : 1h 46mn
Overall bit rate : 1 884 Kbps
Movie name : The.Adventures.of.Tintin.2011.720p.BluRay.x264-DTRG
Encoded date : UTC 2012-02-22 03:02:25
Writing application : mkvmerge v5.2.1 ('A Far Off Place') built on Jan 2 2012 23:21:10


Video
ID : 1
Format : AVC
Format/Info : Advanced Video Codec
Format profile : High@L3.1
Format settings, CABAC : Yes
Format settings, ReFrames : 4 frames
Format settings, GOP : M=4, N=41
Muxing mode : Header stripping
Codec ID : V_MPEG4/ISO/AVC
Duration : 1h 46mn
Bit rate : 1 500 Kbps
Width : 1 280 pixels
Height : 544 pixels
Display aspect ratio : 2.35:1
Frame rate mode : Variable
Frame rate : 23.976 fps
Color space : YUV
Chroma subsampling : 4:2:0
Bit depth : 8 bits
Scan type : Progressive
Bits/(Pixel*Frame) : 0.090
Stream size : 1.09 GiB (78%)
Writing library : x264 core 112


Audio
ID : 2
Format : AC-3
Format/Info : Audio Coding 3
Mode extension : CM (complete main)
Muxing mode : Header stripping
Codec ID : A_AC3
Duration : 1h 46mn
Bit rate mode : Constant
Bit rate : 384 Kbps
Channel(s) : 6 channels
Channel positions : Front: L C R, Side: L R, LFE
Sampling rate : 48.0 KHz
Bit depth : 16 bits
Compression mode : Lossy
Stream size : 294 MiB (20%)
Language : English


Przygody Tintina / The Adventures of Tintin (2011) 720p.BluRay.x264-DTRG

Przygody Tintina / The Adventures of Tintin (2011) 720p.BluRay.x264-DTRG Przygody Tintina / The Adventures of Tintin (2011) 720p.BluRay.x264-DTRG

Przygody Tintina / The Adventures of Tintin (2011) 720p.BluRay.x264-DTRG
Uwaga! Linki nie zakodowane tylko dla zarejestrowanych użytkowników!

Nie masz konta? Zarejestruj się za darmo!
----------------
Links are not encoded only for registered users only! Plese login or register!



Użytkownik VIP

neobraVIP

#1 | Dodany: 22 Luty 2012 18:24











****************************************************************************


Wersja XVID w komentarzach !!!


>>>>>>>KLIKNIJ<<<<<<<<



****************************************************************************









Użytkownik VIP

gromerrUżytkownik

#2 | Dodany: 22 Luty 2012 18:59

Przygody Tintina 2011 PLDUB


Dane techniczne:

Rozmiar pliku: 694.8 MiB (728515392 bajtów)
Czas trwania: 01:42:17.120 (6137120 ms)
Ogólne bitrate pliku: 950 Kbps
Format: AVI

Video FPS: 25.000
Video kodek: XviD
Video bitrate: 816 Kbps
Video rozdzielczość: 640x272
Video rozmiar: 597 MiB (86%)
Video proporcje obrazu: 2.35:1

Audio format: MPEG Audio
Audio format wynik:
Audio bitrate: 128 Kbps
Audio liczba kanałów: 2
Audio sampling rate: 44.1 KHz
Audio resolution:
Audio rozmiar: 93.6 MiB (13%)




Opis uploadu:

Release:  Przygody.Tintina.2011.PLDUB.MD.DVDRip.XviD-BiDA.avi
rodzaj kompresji: brak
zawartość uploadu: .avi
Wersja językowa: dubbling pl
Dane naprawcze: brak
wielkość całości: 694 mb


Download:

hellshare
Uwaga! Linki nie zakodowane tylko dla zarejestrowanych użytkowników!

Nie masz konta? Zarejestruj się za darmo!
----------------
Links are not encoded only for registered users only! Plese login or register!




HASŁO:
Brak
Użytkownik VIP

sajmon22VIP

#3 | Dodany: 28 Luty 2012 17:00

General
Complete name : The.Adventures.of.Tintin.2011.PLSUBBED.BRRip.XVID.AC3-Sajmon
Format : AVI
File size : 1.36 GiB
Duration : 1h 46mn
Overall bit rate : 1 826 Kbps
Source : 720p

Video
Codec ID : XVID
Bit rate : 1 368 Kbps
Width : 720 pixels
Height : 306 pixels
Display aspect ratio : 2.35:1
Frame rate : 23.976 fps

Audio
Format : AC-3
Bit rate : 448 Kbps
Channel(s) : 6 channels

**Do wypakowania użyj jednego z programów Jzip, 7zip..... **
Uwaga! Linki nie zakodowane tylko dla zarejestrowanych użytkowników!

Nie masz konta? Zarejestruj się za darmo!
----------------
Links are not encoded only for registered users only! Plese login or register!

General
Complete name : The.Adventures.of.Tintin.2011.PLSUBBED.720p.BRRip.XVID.AC3-Sajmon
Format : AVI
File size : 2.59 GiB
Duration : 1h 46mn
Overall bit rate : 3 464 Kbps
Source : RemixHD

Video
Codec ID : XVID
Bit rate : 3 007 Kbps
Width : 1 280 pixels
Height : 544 pixels
Display aspect ratio : 2.35:1
Frame rate : 23.976 fps

Audio
Format : AC-3
Bit rate : 448 Kbps
Channel(s) : 6 channels

**Do wypakowania użyj jednego z programów Jzip, 7zip..... **
Uwaga! Linki nie zakodowane tylko dla zarejestrowanych użytkowników!

Nie masz konta? Zarejestruj się za darmo!
----------------
Links are not encoded only for registered users only! Plese login or register!

Informacje

Jeżeli chcesz skomentować artykuł musisz być zarejestrowany na stronie.