EXSite.pl - Portal ze wszystkim Mamy tutaj wszystko

NIE MASZ JESZCZE KONTA? ZAREJESTRUJ SIĘ ZA DARMO!   
Przypomnij hasło X

Zabójcze piosenki małego miasta / Small Town Murder Songs (2010) DVDrip.XviD.ac3-DiVERSiTY

Dodał: dixiluk 23 Luty 2012 15:32


Zabójcze piosenki małego miasta / Small Town Murder Songs (2010) DVDrip.XviD.ac3-DiVERSiTY

Zabójcze piosenki małego miasta / Small Town Murder Songs (2010) DVDrip.XviD.ac3-DiVERSiTY


..:: OPIS/INFO ::..

Czas trwania: 1 godz. 15 min
Gatunek: Dramat, Kryminał, Thriller
Premiera: 14 września 2010
Rezyser: Ed Gass-Donnelly
Scenariusz: Ed Gass-DonnellyNowoczesna, gotycka opowieść o zbrodni i odkupieniu, traktująca o starzejącym się oficerze policji z małego miasteczka Ontario Mennonite. Prowadził on w przeszłości życie pełne przemocy, które stara się zostawić za sobą, ukryć przed wszystkimi. Niestety w okolicy pojawia się morderca, który burzy panujący w okolicy spokój i nowy sposób życia głównego bohatera.


..:: DANE TECHNICZNE ::..

Nazwa Release:Zabójcze piosenki małego miasta / Small Town Murder Songs (2010) DVDrip.XviD.ac3-DiVERSiTY
Waga:800.831 MB
Archiwum:RAR
Dane naprawcze:1%


Overall bit rate : 1 544 Kbps

Video
Format : MPEG-4 Visual
Codec ID : XVID
Duration : 1h 12mn
Bit rate : 1 089 Kbps
Width : 720 pixels
Height : 304 pixels
Frame rate : 25.000 fps
Stream size : 563 MiB (70%)

Audio
Format : AC-3
Format/Info : Audio Coding 3
Bit rate : 448 Kbps
Channel(s) : 6 channels
Sampling rate : 48.0 KHz
Bit depth : 16 bits
Stream size : 232 MiB (29%)


..:: SCREENY ::..


..:: DOWNLOAD ::..

..:: 2 SERWERY. MOŻNA POBIERAĆ NA PRZEMIAN | 400 MB PARTS ::..

..:: HELLSHARE ::..

Uwaga! Linki nie zakodowane tylko dla zarejestrowanych użytkowników!

Nie masz konta? Zarejestruj się za darmo!
----------------
Links are not encoded only for registered users only! Plese login or register!

..:: TURBOBIT ::..

Uwaga! Linki nie zakodowane tylko dla zarejestrowanych użytkowników!

Nie masz konta? Zarejestruj się za darmo!
----------------
Links are not encoded only for registered users only! Plese login or register!

..:: BIG LINK::..

Uwaga! Linki nie zakodowane tylko dla zarejestrowanych użytkowników!

Nie masz konta? Zarejestruj się za darmo!
----------------
Links are not encoded only for registered users only! Plese login or register!

Mój upload | My Upload
Bez hasła | No password
Mój upload | My Upload
Bez hasła | No password

Informacje

Jeżeli chcesz skomentować artykuł musisz być zarejestrowany na stronie.