EXSite.pl - Portal ze wszystkim Mamy tutaj wszystko

NIE MASZ JESZCZE KONTA? ZAREJESTRUJ SIĘ ZA DARMO!   
Przypomnij hasło X

Ranczo miłości / Love Ranch (2010) DVDrip.XviD.ac3-DiVERSiTY

Dodał: dixiluk 23 Luty 2012 18:56


Ranczo miłości / Love Ranch (2010) DVDrip.XviD.ac3-DiVERSiTY

Ranczo miłości / Love Ranch (2010) DVDrip.XviD.ac3-DiVERSiTY


..:: OPIS/INFO ::..

Czas trwania: 1 godz. 57 min
Gatunek: Dramat, Komedia, Romans, Sportowy
Premiera: 30 czerwca 2010
Rezyser: Taylor Hackford
Scenariusz: Mark JacobsonJest to historia małże?stwa, które założyło pierwszy legalny dom publiczny w Nevadzie. Interes ten okaże się dla pary testem wierności małże?skiej.


..:: DANE TECHNICZNE ::..

Nazwa Release:Ranczo miłości / Love Ranch (2010) DVDrip.XviD.ac3-DiVERSiTY
Waga:1.392 GB
Archiwum:RAR
Dane naprawcze:1%


Overall bit rate : 1 727 Kbps
Source : DVDR Retail

Video

Format : MPEG-4 Visual
Format settings, BVOP : Yes
Codec ID : XVID
Duration : 1h 53mn
Bit rate : 1 271 Kbps
Width : 720 pixels
Height : 400 pixels
Display aspect ratio : 16:9
Frame rate : 25.000 fps
Bit depth : 8 bits
Bits/(Pixel*Frame) : 0.177
Stream size : 1.01 GiB (74%)


Audio
Format : AC-3
Codec ID : 2000
Duration : 1h 53mn
Bit rate : 448 Kbps
Channel(s) : 6 channels
Sampling rate : 48.0 KHz
Bit depth : 16 bits
Stream size : 363 MiB (26%)


..:: SCREENY ::..


..:: DOWNLOAD ::..

..:: 2 SERWERY. MOŻNA POBIERAĆ NA PRZEMIAN | 400 MB PARTS ::..

..:: HELLSHARE ::..

Uwaga! Linki nie zakodowane tylko dla zarejestrowanych użytkowników!

Nie masz konta? Zarejestruj się za darmo!
----------------
Links are not encoded only for registered users only! Plese login or register!

..:: TURBOBIT ::..

Uwaga! Linki nie zakodowane tylko dla zarejestrowanych użytkowników!

Nie masz konta? Zarejestruj się za darmo!
----------------
Links are not encoded only for registered users only! Plese login or register!

..:: BIG LINK::..

Uwaga! Linki nie zakodowane tylko dla zarejestrowanych użytkowników!

Nie masz konta? Zarejestruj się za darmo!
----------------
Links are not encoded only for registered users only! Plese login or register!

Mój upload | My Upload
Bez hasła | No password
Mój upload | My Upload
Bez hasła | No password

Informacje

Jeżeli chcesz skomentować artykuł musisz być zarejestrowany na stronie.