EXSite.pl - Portal ze wszystkim Mamy tutaj wszystko

NIE MASZ JESZCZE KONTA? ZAREJESTRUJ SIĘ ZA DARMO!   
Przypomnij hasło X

Hugo i jego wynalazek / Hugo (2011) DVDRip.x264.AC3-warhawk

Dodał: dixiluk 24 Luty 2012 13:34


Hugo i jego wynalazek / Hugo (2011) DVDRip.x264.AC3-warhawk

Hugo i jego wynalazek / Hugo (2011) DVDRip.x264.AC3-warhawk



Info:

Czas trwania: 2 godz. 7 min
Gatunek: Familijny, Przygodowy
Premiera: 10 lutego 2012
Rezyser: Martin Scorsese
Scenariusz: John Logan

Waga: 1.022 GB + Dane Naprawcze w partach po 400mb / BIGLINK

Hugo i jego wynalazek / Hugo (2011) DVDRip.x264.AC3-warhawk


Film zrealizowany na podstawie książki Briana Selznicka. Bohaterem jest Hugo - sierota mieszkający w korytarzach ukrytych w murach paryskiego dworca, gdzie jego życie zależy od zachowania anonimowości. Kiedy jednak jego losy zazębiają się z życiem pewnej dziewczynki (Izabelle) kochającej książki oraz starca prowadzącego na dworcu sklepik z zabawkami, jego podziemne życie zostanie zagrożone. Tajemniczy rysunek, notes, skradziony klucz, mechaniczny człowiek i ukryta wiadomość od nieżyjącego ojca Hugona to elementy tworzące szkielet tej pięknej historii.

Hugo i jego wynalazek / Hugo (2011) DVDRip.x264.AC3-warhawk


Hugo i jego wynalazek / Hugo (2011) DVDRip.x264.AC3-warhawk



Hugo i jego wynalazek / Hugo (2011) DVDRip.x264.AC3-warhawk

Overall bit rate: 1 130 Kbps

Video
Format: AVC
Codec ID: V_MPEG4/ISO/AVC
Bit rate: 681 Kbps
Width: 720 pixels
Height: 400 pixels
Display aspect ratio: 16:9
Frame rate: 23.976 fps
Stream size: 596 MiB (58%)
Language: English
Default: Yes
Forced: No

Audio
Format: AC-3
Bit rate: 448 Kbps
Channel(s): 6 channels
Sampling rate: 48.0 KHz
Bit depth: 16 bits
Compression mode: Lossy
Delay relative to video: 219ms
Stream size: 405 MiB (40%)


Hugo i jego wynalazek / Hugo (2011) DVDRip.x264.AC3-warhawk




Hugo i jego wynalazek / Hugo (2011) DVDRip.x264.AC3-warhawk
Jeżeli któreś linki wygasły lub są jakieś problemy proszę pisać na GG: 21669188 lub PW.Zapraszam na inne moje wstawki

Informacje

Jeżeli chcesz skomentować artykuł musisz być zarejestrowany na stronie.