EXSite.pl - Portal ze wszystkim Mamy tutaj wszystko

NIE MASZ JESZCZE KONTA? ZAREJESTRUJ SIĘ ZA DARMO!   
Przypomnij hasło X

Odwet / Recoil (2011) 720p.BRRip.x264-Feel-Free

Dodał: ghway 25 Luty 2012 17:04



Odwet / Recoil (2011)

720p.BRRip.x264-Feel-Free



Odwet / Recoil (2011) 720p.BRRip.x264-Feel-Free

Odwet / Recoil (2011) 720p.BRRip.x264-Feel-Free


gatunek: Akcja
produkcja: Kanada
reżyseria: Terry Miles
scenariusz: John Sullivan


Bohaterem filmu jest policjant, którego rodzina zostaje zamordowana przez nieznanych przestępców. Nie mogąc pogodzić się ze swoją stratą i bezczynnością policji, postanawia on wymierzyć sprawiedliwość na własną rękę.


Dane techniczne:



Odwet / Recoil (2011) 720p.BRRip.x264-Feel-Free


Download - 500 MB Parts:



Hellshare
Uwaga! Linki nie zakodowane tylko dla zarejestrowanych użytkowników!

Nie masz konta? Zarejestruj się za darmo!
----------------
Links are not encoded only for registered users only! Plese login or register!



Użytkownik VIP

ghwaySuper Uploader

#1 | Dodany: 25 Luty 2012 17:04

brawo
Użytkownik VIP

gromerrUżytkownik

#2 | Dodany: 25 Luty 2012 17:23

Recoil 2011


Dane techniczne:

Rozmiar pliku: 829.7 MiB (870033146 bajtów)
Czas trwania: 01:33:50.424 (5630424 ms)
Ogólne bitrate pliku: 1 236 Kbps
Format: AVI

Video FPS: 25.000
Video kodek:
Video bitrate: 1 035 Kbps
Video rozdzielczość: 720x384
Video rozmiar: 695 MiB (84%)
Video proporcje obrazu: 1.875

Audio format: MPEG Audio
Audio format wynik:
Audio bitrate: 32.0 Kbps
Audio liczba kanałów: 2
Audio sampling rate: 48.0 KHz
Audio resolution:
Audio rozmiar: 126 MiB (15%)




Opis uploadu:

Release:  Recoil.2011.BRRIP.XviD-ZOMBiES.avi
rodzaj kompresji: brak
zawartość uploadu: .avi
Wersja językowa: eng
Dane naprawcze: brak
wielkość całości:  829mb


Download:

hellshare
Uwaga! Linki nie zakodowane tylko dla zarejestrowanych użytkowników!

Nie masz konta? Zarejestruj się za darmo!
----------------
Links are not encoded only for registered users only! Plese login or register!



HASŁO:
Brak
Użytkownik VIP

ampatinisUżytkownik

#3 | Dodany: 26 Luty 2012 11:36

Odwet / Recoil (2011) 720p.BRRip.x264-Feel-Free

Format : MPEG-4
Format profile : Base Media
Codec ID : isom
File size : 2.23 GiB
Duration : 1h 33mn
Overall bit rate mode : Variable
Overall bit rate : 3 401 Kbps

Video
ID : 1
Format : AVC
Format/Info : Advanced Video Codec
Format profile : High@L5.1
Format settings, CABAC : Yes
Format settings, ReFrames : 5 frames
Codec ID : avc1
Codec ID/Info : Advanced Video Coding
Duration : 1h 33mn
Bit rate : 3 000 Kbps
Maximum bit rate : 18.6 Mbps
Width : 1 280 pixels
Height : 720 pixels
Display aspect ratio : 16:9
Frame rate mode : Constant
Frame rate : 23.976 fps
Color space : YUV
Chroma subsampling : 4:2:0
Bit depth : 8 bits
Scan type : Progressive
Bits/(Pixel*Frame) : 0.136
Stream size : 1.94 GiB (87%)
Writing library : x264

Audio
ID : 2
Format : AAC
Format/Info : Advanced Audio Codec
Format profile : LC
Codec ID : 40
Duration : 1h 33mn
Bit rate mode : Variable
Bit rate : 442 Kbps
Maximum bit rate : 512 Kbps
Channel(s) : 6 channels
Channel positions : Front: L C R, Side: L R, LFE
Sampling rate : 48.0 KHz
Compression mode : Lossy
Stream size : 297 MiB (13%)




Uwaga! Linki nie zakodowane tylko dla zarejestrowanych użytkowników!

Nie masz konta? Zarejestruj się za darmo!
----------------
Links are not encoded only for registered users only! Plese login or register!

Informacje

Jeżeli chcesz skomentować artykuł musisz być zarejestrowany na stronie.