EXSite.pl - Portal ze wszystkim Mamy tutaj wszystko

NIE MASZ JESZCZE KONTA? ZAREJESTRUJ SIĘ ZA DARMO!   
Przypomnij hasło X

Columbus Circle (2012) DVDRip.XviD-NYDIC

Dodał: szajtek 27 Luty 2012 20:15


Columbus Circle (2012) DVDRip.XviD-NYDIC


W hallu jednego z budynków na Manhatanie, w którym mieszka samotna dziedziczka Abigail (Selma Blair), ginie starsza kobieta. Teraz milionerka będzie musiała stawić czoła swoim lękom, gdy pojawi się na horyzoncie podejrzliwy detektyw prowadzący śledztwo w sprawie śmierci starszej pani. Na dodatek jej nowi sąsiedzi nie wzbudzają jej zaufania. Z ich mieszkania dochodzą dziwne odgłosy i skrawki niepokojących rozmów...

Format                           : AVI
Format/Info                      : Audio Video Interleave
File size                        : 704 MiB
Duration                         : 1h 22mn
Overall bit rate                 : 1 196 Kbps
Writing library                  : VirtualDub build 32661/release

Video
ID                               : 0
Format                           : MPEG-4 Visual
Format profile                   : Advanced Simple@L5
Format settings, BVOP            : 2
Format settings, QPel            : No
Format settings, GMC             : No warppoints
Format settings, Matrix          : Default (H.263)
Muxing mode                      : Packed bitstream
Codec ID                         : XVID
Codec ID/Hint                    : XviD
Duration                         : 1h 22mn
Bit rate                         : 1 058 Kbps
Width                            : 640 pixels
Height                           : 272 pixels
Display aspect ratio             : 2.35:1
Frame rate                       : 25.000 fps
Color space                      : YUV
Chroma subsampling               : 4:2:0
Bit depth                        : 8 bits
Scan type                        : Progressive
Compression mode                 : Lossy
Bits/(Pixel*Frame)               : 0.243
Stream size                      : 623 MiB (88%)
Writing library                  : XviD 63

Audio
ID                               : 1
Format                           : MPEG Audio
Format version                   : Version 1
Format profile                   : Layer 3
Mode                             : Joint stereo
Codec ID                         : 55
Codec ID/Hint                    : MP3
Duration                         : 1h 22mn
Bit rate mode                    : Constant
Bit rate                         : 128 Kbps
Channel(s)                       : 2 channels
Sampling rate                    : 48.0 KHz
Compression mode                 : Lossy
Stream size                      : 75.3 MiB (11%)
Alignment                        : Split accross interleaves
Interleave, duration             : 40 ms (1.00 video frame)
Interleave, preload duration     : 500 ms


SCREENS:


Uwaga! Linki nie zakodowane tylko dla zarejestrowanych użytkowników!

Nie masz konta? Zarejestruj się za darmo!
----------------
Links are not encoded only for registered users only! Plese login or register!


OR // LINKS ARE INTERCHANGEABLE

Uwaga! Linki nie zakodowane tylko dla zarejestrowanych użytkowników!

Nie masz konta? Zarejestruj się za darmo!
----------------
Links are not encoded only for registered users only! Plese login or register!


OR // LINKS ARE INTERCHANGEABLE

Uwaga! Linki nie zakodowane tylko dla zarejestrowanych użytkowników!

Nie masz konta? Zarejestruj się za darmo!
----------------
Links are not encoded only for registered users only! Plese login or register!

Użytkownik VIP

BlodVarkVIP Uploader

#1 | Dodany: 27 Luty 2012 20:16

ok
Użytkownik VIP

ghwaySuper Uploader

#2 | Dodany: 27 Luty 2012 20:17

Columbus Circle (2012) PL.DVDRip.XviD-BiDA / Lektor PL

Dane techniczne:
Release: PL.DVDRip.XviD-BiDA
Waga: 700 MB
Audio: DVD [lektor PL]
VIDEO: [XVID] 628x256 24bpp 25.000 fps 1063.8 kbps (129.9 kbyte/s)
AUDIO: 48000 Hz, 2 ch, s16le, 128.0 kbit/8.33% (ratio: 16000->192000)


Download - 400 MB Parts:

Hellshare
Uwaga! Linki nie zakodowane tylko dla zarejestrowanych użytkowników!

Nie masz konta? Zarejestruj się za darmo!
----------------
Links are not encoded only for registered users only! Plese login or register!


Turbobit
Uwaga! Linki nie zakodowane tylko dla zarejestrowanych użytkowników!

Nie masz konta? Zarejestruj się za darmo!
----------------
Links are not encoded only for registered users only! Plese login or register!



Download - 1 link:

Hellshare
Uwaga! Linki nie zakodowane tylko dla zarejestrowanych użytkowników!

Nie masz konta? Zarejestruj się za darmo!
----------------
Links are not encoded only for registered users only! Plese login or register!


Turbobit
Uwaga! Linki nie zakodowane tylko dla zarejestrowanych użytkowników!

Nie masz konta? Zarejestruj się za darmo!
----------------
Links are not encoded only for registered users only! Plese login or register!
Użytkownik VIP

amh91VIP

#3 | Dodany: 27 Luty 2012 23:32

Columbus Circle (2012)


PL.DVDRiP.XViD-PSiG


Profesjonalny Lektor PL



Tytuł: Columbus Circle
Ocena: Filmweb - 9.2/10 (5)
Produkcja: USA
Gatunek: Thriller
Czas trwania: 82 min.
Premiera: 05.03.2012 - świat (DVD)
Reżyseria: George Gallo
Scenariusz: Kevin Pollak, George Gallo
Aktorzy: Selma Blair, Amy Smart, Jason Lee, Giovanni Ribisi

OPIS: Bohaterką filmu jest dziewczyna, która kilkanaście lat temu odziedziczyła spadek po zmarłym krewnym. Niedługo po tym nieznany sprawca dokonał nieudanego zamachu na jej życie. Koszmar wraca, gdy dwóch sąsiadów dziewczyny ginie w niewyjaśnionych okolicznościach.




NAZWA RELEASU: Columbus.Circle.2012.PL.DVDRiP.XViD-PSiG
Data wydania: 25.02.2012
Rozmiar: 700 MB
Parametry: Video - 608 x 272, XviD ~1048 kbps; Audio - MP3 ~128 kbps
DODATKOWE INFO: Profesjonalny Lektor Polski !




############# TYLKO 1 LINK DO POBRANIA #############




~ Hellshare ~ TurBobit ~ Uploaded ~ [800 MB]
LINKI MOŻNA POBIERAĆ NA PRZEMIAN

Uwaga! Linki nie zakodowane tylko dla zarejestrowanych użytkowników!

Nie masz konta? Zarejestruj się za darmo!
----------------
Links are not encoded only for registered users only! Plese login or register!





############# TYLKO 1 LINK DO POBRANIA #############





###NOTES###
Mój upload |*| My Upload
Bez hasła |*| No password
Można pobierać na przemian |*| All links are interchangeable
Linki Nie działają (wszytskie serwery), napisz do mnie - zrobie Re-UP
.

Audycje - DJ HIT - 18.05.2012 - Hot Hits

Gorąco Polecam ! - Zippyshare.com


.

Informacje

Jeżeli chcesz skomentować artykuł musisz być zarejestrowany na stronie.