EXSite.pl - Portal ze wszystkim Mamy tutaj wszystko

NIE MASZ JESZCZE KONTA? ZAREJESTRUJ SIĘ ZA DARMO!   
Przypomnij hasło X

Spadkobiercy / The Descendants (2011) DVDRip.x264.AC3-konscious

Dodał: dixiluk 29 Luty 2012 12:07


Spadkobiercy / The Descendants (2011) DVDRip.x264.AC3-konscious

Spadkobiercy / The Descendants (2011) DVDRip.x264.AC3-konscious


..:: OPIS/INFO ::..

Czas trwania: 1 godz. 55 min
Gatunek: Dramat, Komedia
Premiera: 17 lutego 2012
Rezyser: Alexander Payne
Scenariusz: Nat FaxonNajnowszy film Alexandra Payne’a, trzykrotnie nominowanego do Oscara twórcy "Bezdroży" i "Schmidta", ekranizacja bestsellerowej powieści Kaui Hart Hemmings. Gdy jego żona trafia do szpitala po wypadku, wpływowy biznesmen z Hawajów musi zaopiekować się dwiema kilkunastoletnimi córkami, z którymi wcześniej niewiele go łączyło.


..:: DANE TECHNICZNE ::..

Nazwa Release:Spadkobiercy / The Descendants (2011) DVDRip.x264.AC3-konscious
Waga:1.657 GB
Archiwum:RAR
Dane naprawcze:1%


Overall bit rate : 2 050 Kbps


Video

Format : AVC
Format/Info : Advanced Video Codec
Format profile : High@L4.1
Format settings, CABAC : Yes
Format settings, ReFrames : 15 frames
Format settings, GOP : M=1, N=35
Codec ID : V_MPEG4/ISO/AVC
Duration : 1h 55mn
Bit rate : 1 601 Kbps
Width : 720 pixels
Height : 304 pixels
Display aspect ratio : 2.35:1
Frame rate : 23.976 fps
Color space : YUV
Chroma subsampling : 4:2:0
Bit depth : 8 bits
Scan type : Progressive
Bits/(Pixel*Frame) : 0.305
Stream size : 1.25 GiB (76%)
Writing library : x264 core 120 r2164 da19765

Audio

Format : AC-3
Format/Info : Audio Coding 3
Mode extension : CM (complete main)
Codec ID : A_AC3
Duration : 1h 55mn
Bit rate mode : Constant
Bit rate : 448 Kbps
Channel(s) : 6 channels
Channel positions : Front: L C R, Side: L R, LFE
Sampling rate : 48.0 KHz
Bit depth : 16 bits
Compression mode : Lossy
Stream size : 369 MiB (22%)


..:: SCREENY ::..




..:: DOWNLOAD ::..

..:: 2 SERWERY. MOŻNA POBIERAĆ NA PRZEMIAN | 400 MB PARTS ::..

..:: HELLSHARE ::..

Uwaga! Linki nie zakodowane tylko dla zarejestrowanych użytkowników!

Nie masz konta? Zarejestruj się za darmo!
----------------
Links are not encoded only for registered users only! Plese login or register!

..:: TURBOBIT ::..

Uwaga! Linki nie zakodowane tylko dla zarejestrowanych użytkowników!

Nie masz konta? Zarejestruj się za darmo!
----------------
Links are not encoded only for registered users only! Plese login or register!

..:: RAPIDGATOR ::..

Uwaga! Linki nie zakodowane tylko dla zarejestrowanych użytkowników!

Nie masz konta? Zarejestruj się za darmo!
----------------
Links are not encoded only for registered users only! Plese login or register!

..:: BIG LINK::..

Uwaga! Linki nie zakodowane tylko dla zarejestrowanych użytkowników!

Nie masz konta? Zarejestruj się za darmo!
----------------
Links are not encoded only for registered users only! Plese login or register!

Mój upload | My Upload
Bez hasła | No password

Informacje

Jeżeli chcesz skomentować artykuł musisz być zarejestrowany na stronie.