EXSite.pl - Portal ze wszystkim Mamy tutaj wszystko

NIE MASZ JESZCZE KONTA? ZAREJESTRUJ SIĘ ZA DARMO!   
Przypomnij hasło X

The Cup (2011) DVDRip.XviD.AC3.5.1-Une-CM8

Dodał: dixiluk 29 Luty 2012 21:59


The Cup (2011) DVDRip.XviD.AC3-5.1-Une-CM8

The Cup (2011) DVDRip.XviD.AC3.5.1-Une-CM8


..:: OPIS/INFO ::..

Czas trwania: 1 godz. 42 min
Gatunek: Dramat, Sportowy
Premiera: 13 października 2011
Rezyser: Simon Wincer
Scenariusz: Simon WincerThe Melbourne Cup is truly "the race that stops a nation".
Since it's inception, great stories have emerged from this famous horse race, run each year
on the first Tuesday in November, but none had a more extraordinary effect on the entire nation
than the running of the 2002 Melbourne Cup.
In the wake of the Bali bombings less than three weeks earlier, Australians were seeking refuge
in their most cherished tradition - The Cup. But a grieving jockey's courage in the face of his
own loss, gave his countrymen far more than just a great race.
The final thrilling moments of this story will be forever etched in Australian folklore.
The Cup is not just a story about horse racing, it's about triumph over adversity and
that inner courage inside all of us.


..:: DANE TECHNICZNE ::..

Nazwa Release:The Cup (2011) DVDRip.XviD.AC3-5.1-Une-CM8
Waga:1.47 GB
Archiwum:RAR
Dane naprawcze:1%



General
Complete name : The.Cup.2011.DVDRip.XviD.AC3-5.1.Une-CM8.avi
Format : AVI
Format/Info : Audio Video Interleave
File size : 1.46 GiB
Duration : 1h 41mn
Overall bit rate : 2 052 Kbps
Writing application : VirtualDubMod 1.5.4.1 (build 2178/release)
Writing library : VirtualDubMod build 2178/release

Video
ID : 0
Format : MPEG-4 Visual
Format profile : Advanced Simple@L5
Format settings, BVOP : 1
Format settings, QPel : No
Format settings, GMC : No warppoints
Format settings, Matrix : Custom
Codec ID : XVID
Codec ID/Hint : XviD
Duration : 1h 41mn
Bit rate : 1 597 Kbps
Width : 720 pixels
Height : 304 pixels
Display aspect ratio : 2.35:1
Frame rate : 25.000 fps
Color space : YUV
Chroma subsampling : 4:2:0
Bit depth : 8 bits
Scan type : Progressive
Compression mode : Lossy
Bits/(Pixel*Frame) : 0.292
Stream size : 1.14 GiB (78%)
Writing library : XviD 1.2.1 (UTC 2008-12-04)

Audio
ID : 1
Format : AC-3
Format/Info : Audio Coding 3
Mode extension : CM (complete main)
Codec ID : 2000
Duration : 1h 41mn
Bit rate mode : Constant
Bit rate : 448 Kbps
Channel(s) : 6 channels
Channel positions : Front: L C R, Side: L R, LFE
Sampling rate : 48.0 KHz
Bit depth : 16 bits
Compression mode : Lossy
Stream size : 326 MiB (22%)
Alignment : Split accross interleaves
Interleave, duration : 96 ms (2.40 video frames)
Interleave, preload duration : 96 ms


..:: SCREENY ::..




..:: DOWNLOAD ::..

..:: 2 SERWERY. MOŻNA POBIERAĆ NA PRZEMIAN | 400 MB PARTS ::..

..:: HELLSHARE ::..

Uwaga! Linki nie zakodowane tylko dla zarejestrowanych użytkowników!

Nie masz konta? Zarejestruj się za darmo!
----------------
Links are not encoded only for registered users only! Plese login or register!

..:: TURBOBIT ::..

Uwaga! Linki nie zakodowane tylko dla zarejestrowanych użytkowników!

Nie masz konta? Zarejestruj się za darmo!
----------------
Links are not encoded only for registered users only! Plese login or register!

..:: BIG LINK::..

Uwaga! Linki nie zakodowane tylko dla zarejestrowanych użytkowników!

Nie masz konta? Zarejestruj się za darmo!
----------------
Links are not encoded only for registered users only! Plese login or register!

Mój upload | My Upload
Bez hasła | No password

Informacje

Jeżeli chcesz skomentować artykuł musisz być zarejestrowany na stronie.