EXSite.pl - Portal ze wszystkim Mamy tutaj wszystko

NIE MASZ JESZCZE KONTA? ZAREJESTRUJ SIĘ ZA DARMO!   
Przypomnij hasło X

Deviation (2012) BRRIP.XVID.AC3-Xtreme Encode

Dodał: dixiluk 29 Luty 2012 22:24


Deviation (2012) BRRIP.XVID.AC3-Xtreme Encode

Deviation (2012) BRRIP.XVID.AC3-Xtreme Encode


..:: OPIS/INFO ::..

Czas trwania: 1 godz. 30 min
Gatunek: Thriller
Rezyser: J.K. Amalou
Scenariusz: J.K. AmalouTold over one horrifying night, Deviation will take you on a white-knuckle journey into the mind of Frank Norton, a dangerous schizophrenic murderer as he escapes from Broadmoor Hospital and embarks on a murderous rampage across London. But when Frankie takes a hostage, the deadly game of cat-and-mouse truly begins.


..:: DANE TECHNICZNE ::..

Nazwa Release:Deviation (2012) BRRIP.XVID.AC3-Xtreme Encode
Waga:1.534 GB
Archiwum:RAR
Dane naprawcze:1%


General


Complete name : Deviation 2012 BRRIP XVID AC3 - Xtreme Encode.avi
Format : AVI
Format/Info : Audio Video Interleave
File size : 1.52 GiB
Duration : 1h 30mn
Overall bit rate : 2 397 Kbps





Video


ID : 0
Format : MPEG-4 Visual
Format profile : Advanced Simple@L5
Format settings, BVOP : 1
Format settings, QPel : No
Format settings, GMC : No warppoints
Format settings, Matrix : Default (H.263)
Codec ID : XVID
Codec ID/Hint : XviD
Duration : 1h 30mn
Bit rate : 1 941 Kbps
Width : 720 pixels
Height : 304 pixels
Display aspect ratio : 2.35:1
Frame rate : 23.976 fps
Color space : YUV
Chroma subsampling : 4:2:0
Bit depth : 8 bits
Scan type : Progressive
Compression mode : Lossy
Bits/(Pixel*Frame) : 0.370
Stream size : 1.23 GiB (81%)


Audio

ID : 1
Format : AC-3
Format/Info : Audio Coding 3
Mode extension : CM (complete main)
Codec ID : 2000
Duration : 1h 30mn
Bit rate mode : Constant
Bit rate : 448 Kbps
Channel(s) : 6 channels
Channel positions : Front: L C R, Side: L R, LFE
Sampling rate : 48.0 KHz
Bit depth : 16 bits
Compression mode : Lossy
Stream size : 291 MiB (19%)
Alignment : Aligned on interleaves
Interleave, duration : 64 ms (1.53 video frames)
Interleave, preload duration : 192 ms


..:: SCREENY ::..




..:: DOWNLOAD ::..

..:: 2 SERWERY. MOŻNA POBIERAĆ NA PRZEMIAN | 400 MB PARTS ::..

..:: HELLSHARE ::..

Uwaga! Linki nie zakodowane tylko dla zarejestrowanych użytkowników!

Nie masz konta? Zarejestruj się za darmo!
----------------
Links are not encoded only for registered users only! Plese login or register!

..:: TURBOBIT ::..

Uwaga! Linki nie zakodowane tylko dla zarejestrowanych użytkowników!

Nie masz konta? Zarejestruj się za darmo!
----------------
Links are not encoded only for registered users only! Plese login or register!

..:: BIG LINK::..

Uwaga! Linki nie zakodowane tylko dla zarejestrowanych użytkowników!

Nie masz konta? Zarejestruj się za darmo!
----------------
Links are not encoded only for registered users only! Plese login or register!

Mój upload | My Upload
Bez hasła | No password

Użytkownik VIP

ghwaySuper Uploader

#1 | Dodany: 29 Luty 2012 22:27

Deviation (2012) DVDRiP.XviD-SiC

Dane techniczne:
Deviation (2012) DVDRiP XviD-SiC
Language: English
AVI | XviD 1139 Kbps | 640 x 272 25fps | MP3 128 Kbps | 1h 30mn | 701 MB


Download - 400 MB Parts:

Hellshare
Uwaga! Linki nie zakodowane tylko dla zarejestrowanych użytkowników!

Nie masz konta? Zarejestruj się za darmo!
----------------
Links are not encoded only for registered users only! Plese login or register!


Turbobit
Uwaga! Linki nie zakodowane tylko dla zarejestrowanych użytkowników!

Nie masz konta? Zarejestruj się za darmo!
----------------
Links are not encoded only for registered users only! Plese login or register!



Download - 1 link:

Hellshare
Uwaga! Linki nie zakodowane tylko dla zarejestrowanych użytkowników!

Nie masz konta? Zarejestruj się za darmo!
----------------
Links are not encoded only for registered users only! Plese login or register!


Turbobit
Uwaga! Linki nie zakodowane tylko dla zarejestrowanych użytkowników!

Nie masz konta? Zarejestruj się za darmo!
----------------
Links are not encoded only for registered users only! Plese login or register!
Użytkownik VIP

NieBedeCieBilUżytkownik

#2 | Dodany: 21 Marzec 2012 00:17

Deviation (2012)


Frankie jest obłąkanym mordercą, który właśnie uciekł ze szpitala psychiatrycznego. W trakcie swojej ucieczki bierze zakładniczkę, która ma mu pomóc w przekroczeniu granicy


Opis uploadu :


Rozmiar filmu - 702mb
Język filmu - ENG / Napisy PL
Hasło - Brak
Dane naprawcze - Brak


Download :


http://download.hellshare.pl/df-rar/6179724/


Hasło / Pass


Brak hasła / No pass


NAPISY PL !! :


http://download.hellshare.pl/03x03-the-gothowitz-deviation-txt/6186720/
Dodaje tylko sprawdzony upload !

Informacje

Jeżeli chcesz skomentować artykuł musisz być zarejestrowany na stronie.