EXSite.pl - Portal ze wszystkim Mamy tutaj wszystko

NIE MASZ JESZCZE KONTA? ZAREJESTRUJ SIĘ ZA DARMO!   
Przypomnij hasło X

Maglownica - odrodzenie / The Mangler Reborn (2005) DVDRiP.Xvid.AC3.5.1-SiC

Dodał: dixiluk 1 Marzec 2012 01:31


Maglownica - odrodzenie / The Mangler Reborn (2005) DVDRiP.Xvid.AC3-5.1-SiC

Maglownica - odrodzenie / The Mangler Reborn (2005) DVDRiP.Xvid.AC3.5.1-SiC


..:: OPIS/INFO ::..

Czas trwania: 1 godz. 30 min
Gatunek: Horror
Premiera: 15 listopada 2005
Rezyser: Matt Cunningham
Scenariusz: Matt CunninghamKontynuacja "Maglownicy" z 1995 roku, historii opartej na opowiadaniu Stephena Kinga. Części przeklętej Maglownicy zostają poskładane przez szale?ca. Opętany przez maszynę, staje się jej żywą formą i dla niej dokonuje mordów. W miasteczku zaczynają ginąć ludzie, szaleniec wie, że tylko zabijając innych zdoła uchronić siebie. Krwiożercza maszyna żąda więcej ofiar. [ opis dystrybutora ]


..:: DANE TECHNICZNE ::..

Nazwa Release:Maglownica - odrodzenie / The Mangler Reborn (2005) DVDRiP.Xvid.AC3-5.1-SiC
Waga:1.39 GB
Archiwum:RAR
Dane naprawcze:1%


General
Complete name : The.Mangler.Reborn.2005.DVDRiP.AC3-5.1.XviD-SiC.avi
Format : AVI
Format/Info : Audio Video Interleave
File size : 1.37 GiB
Duration : 1h 23mn
Overall bit rate : 2 351 Kbps

Video
ID : 0
Format : MPEG-4 Visual
Format profile : Simple@L3
Format settings, BVOP : 2
Format settings, QPel : No
Format settings, GMC : No warppoints
Format settings, Matrix : Default (H.263)
Muxing mode : Packed bitstream
Codec ID : XVID
Codec ID/Hint : XviD
Duration : 1h 23mn
Bit rate : 2 087 Kbps
Width : 720 pixels
Height : 304 pixels
Display aspect ratio : 2.35:1
Frame rate : 25.000 fps
Color space : YUV
Chroma subsampling : 4:2:0
Bit depth : 8 bits
Scan type : Progressive
Compression mode : Lossy
Bits/(Pixel*Frame) : 0.381
Stream size : 1.21 GiB (89%)
Writing library : XviD 1.0.3 (UTC 2004-12-20)

Audio
ID : 1
Format : AC-3
Format/Info : Audio Coding 3
Mode extension : CM (complete main)
Codec ID : 2000
Duration : 1h 23mn
Bit rate mode : Constant
Bit rate : 256 Kbps
Channel(s) : 5 channels
Channel positions : Front: L C R, Side: L R
Sampling rate : 48.0 KHz
Bit depth : 16 bits
Compression mode : Lossy
Stream size : 153 MiB (11%)
Alignment : Aligned on interleaves
Interleave, duration : 64 ms (1.60 video frames)
Interleave, preload duration : 192 ms


..:: SCREENY ::..




..:: DOWNLOAD ::..

..:: 2 SERWERY. MOŻNA POBIERAĆ NA PRZEMIAN | 400 MB PARTS ::..

..:: HELLSHARE ::..

Uwaga! Linki nie zakodowane tylko dla zarejestrowanych użytkowników!

Nie masz konta? Zarejestruj się za darmo!
----------------
Links are not encoded only for registered users only! Plese login or register!

..:: TURBOBIT ::..

Uwaga! Linki nie zakodowane tylko dla zarejestrowanych użytkowników!

Nie masz konta? Zarejestruj się za darmo!
----------------
Links are not encoded only for registered users only! Plese login or register!

..:: BIG LINK::..

Uwaga! Linki nie zakodowane tylko dla zarejestrowanych użytkowników!

Nie masz konta? Zarejestruj się za darmo!
----------------
Links are not encoded only for registered users only! Plese login or register!

Mój upload | My Upload
Bez hasła | No password

Informacje

Jeżeli chcesz skomentować artykuł musisz być zarejestrowany na stronie.