EXSite.pl - Portal ze wszystkim Mamy tutaj wszystko

NIE MASZ JESZCZE KONTA? ZAREJESTRUJ SIĘ ZA DARMO!   
Przypomnij hasło X

Push (2009) DVDRip.x264.AC3-konscious

Dodał: dixiluk 1 Marzec 2012 02:45


Push (2009) DVDRip.x264.AC3-konscious

Push (2009) DVDRip.x264.AC3-konscious


..:: OPIS/INFO ::..

Czas trwania: 1 godz. 51 min
Gatunek: Thriller, Sci-Fi
Premiera: 24 kwietnia 2009
Rezyser: Paul McGuigan
Scenariusz: David Bourla"Push" to zapierający dech w piersiach efektami specjalnymi thriller SF. Scenariusz filmu został oparty w znacznym stopniu na eksperymentach z dziedziny parapsychologii. To właśnie zwykli ludzie obdarzeni nadludzkimi zdolnościami przewidywania przyszłości lub potrafiącymi sterować cudzymi myślami stali się inspiracją twórców filmu, ale też obiektem zainteresowa? kontrwywiadu. Nick Grant (Chris Evans - „W stronę sło?ca”, „Niania w Nowym Jorku”) odziedziczył po swoim ojcu telekinetyczne


..:: DANE TECHNICZNE ::..

Nazwa Release:Push (2009) DVDRip.x264.AC3-konscious
Waga:1.625 GB
Archiwum:RAR
Dane naprawcze:1%


Overall bit rate : 2 053 Kbps


Video

Format : AVC
Format/Info : Advanced Video Codec
Format profile : High@L4.1
Format settings, CABAC : Yes
Format settings, ReFrames : 3 frames
Codec ID : V_MPEG4/ISO/AVC
Duration : 1h 51mn
Bit rate : 1 603 Kbps
Width : 720 pixels
Height : 304 pixels
Display aspect ratio : 2.35:1
Frame rate : 23.976 fps
Color space : YUV
Chroma subsampling : 4:2:0
Bit depth : 8 bits
Scan type : Progressive
Bits/(Pixel*Frame) : 0.305
Stream size : 1.22 GiB (76%)
Writing library : x264 core 120 r2164 da19765

Audio

Format : AC-3
Format/Info : Audio Coding 3
Mode extension : CM (complete main)
Codec ID : A_AC3
Duration : 1h 51mn
Bit rate mode : Constant
Bit rate : 448 Kbps
Channel(s) : 6 channels
Channel positions : Front: L C R, Side: L R, LFE
Sampling rate : 48.0 KHz
Bit depth : 16 bits
Compression mode : Lossy
Stream size : 357 MiB (22%)


..:: SCREENY ::..




..:: DOWNLOAD ::..

..:: 2 SERWERY. MOŻNA POBIERAĆ NA PRZEMIAN | 400 MB PARTS ::..

..:: HELLSHARE ::..

Uwaga! Linki nie zakodowane tylko dla zarejestrowanych użytkowników!

Nie masz konta? Zarejestruj się za darmo!
----------------
Links are not encoded only for registered users only! Plese login or register!

..:: TURBOBIT ::..

Uwaga! Linki nie zakodowane tylko dla zarejestrowanych użytkowników!

Nie masz konta? Zarejestruj się za darmo!
----------------
Links are not encoded only for registered users only! Plese login or register!

..:: BIG LINK::..

Uwaga! Linki nie zakodowane tylko dla zarejestrowanych użytkowników!

Nie masz konta? Zarejestruj się za darmo!
----------------
Links are not encoded only for registered users only! Plese login or register!

Mój upload | My Upload
Bez hasła | No password

Informacje

Jeżeli chcesz skomentować artykuł musisz być zarejestrowany na stronie.