EXSite.pl - Portal ze wszystkim Mamy tutaj wszystko

NIE MASZ JESZCZE KONTA? ZAREJESTRUJ SIĘ ZA DARMO!   
Przypomnij hasło X

Country Mi¶ki / The Country Bear (2002) DVDRip.AC3-INFERNO

Dodał: dixiluk 1 Marzec 2012 13:28


Country Mi¶ki / The Country Bear (2002) DVDRip.AC3-INFERNO

Country Mi¶ki / The Country Bear (2002) DVDRip.AC3-INFERNO


..:: OPIS/INFO ::..

Czas trwania: 1 godz. 28 min
Gatunek: Familijny, Komedia, Musical, Muzyczny
Premiera: 21 lipca 2002
Rezyser: Peter Hastings
Scenariusz: Mark PerezKomedia muzyczna. Młody fan rocka usiłuje przekonać członków swej ukochanej grupy, która rozpadła się dawno temu, by zapomnieli o dziel±cych ich różnicach i wzięli udział w wielkim koncercie charytatywnym. W rolach głównych: Christopher Walken ("Łowca jeleni", "Psy wojny") i Haley Joel Osment ("Szósty zmysł", "A.I. Sztuczna inteligencja").


..:: DANE TECHNICZNE ::..

Nazwa Release:Country Mi¶ki / The Country Bear (2002) DVDRip.AC3-INFERNO
Waga:1.41 GB
Archiwum:RAR
Dane naprawcze:1%


Complete name : The.Country.Bears.2002.DVDRip.AC3-INFERNO.avi
Format : AVI
Format/Info : Audio Video Interleave
Format profile : OpenDML
File size : 1.40 GiB
Duration : 1h 28mn
Overall bit rate : 2 260 Kbps
Writing application : AVI-Mux GUI 1.17.8, Aug 30 2008 12:36:58
Language : English
Sample : Included
Encoded Date: : 2012/02/27
Encoder : BuckeyeDave

Video
ID : 0
Format : MPEG-4 Visual
Format profile : Advanced Simple@L5
Format settings, BVOP : Yes
Format settings, QPel : No
Format settings, GMC : No warppoints
Format settings, Matrix : Default (H.263)
Codec ID : XVID
Codec ID/Hint : XviD
Duration : 1h 28mn
Bit rate : 1 806 Kbps
Width : 640 pixels
Height : 464 pixels
Display aspect ratio : 1.379
Frame rate : 23.976 fps
Resolution : 8 bits
Colorimetry : 4:2:0
Scan type : Progressive
Bits/(Pixel*Frame) : 0.254
Stream size : 1.12 GiB (80%)
Writing library : XviD 1.2.1 (UTC 2008-12-04)

Audio
ID : 1
Format : AC-3
Format/Info : Audio Coding 3
Codec ID : 2000
Duration : 1h 28mn
Bit rate mode : Constant
Bit rate : 448 Kbps
Channel(s) : 6 channels
Channel positions : Front: L C R, Surround: L R, LFE
Sampling rate : 48.0 KHz
Stream size : 283 MiB (20%)
Alignment : Aligned on interleaves
Interleave, duration : 64 ms (1.53 video frames)
Interleave, preload duration : 448 ms
Title : VTS_01_1 T80 3_2ch 448Kbps DELA


..:: SCREENY ::..




..:: DOWNLOAD ::..

..:: 2 SERWERY. MOŻNA POBIERAĆ NA PRZEMIAN | 400 MB PARTS ::..

..:: HELLSHARE ::..

Uwaga! Linki nie zakodowane tylko dla zarejestrowanych użytkowników!

Nie masz konta? Zarejestruj się za darmo!
----------------
Links are not encoded only for registered users only! Plese login or register!

..:: TURBOBIT ::..

Uwaga! Linki nie zakodowane tylko dla zarejestrowanych użytkowników!

Nie masz konta? Zarejestruj się za darmo!
----------------
Links are not encoded only for registered users only! Plese login or register!

..:: BIG LINK::..

Uwaga! Linki nie zakodowane tylko dla zarejestrowanych użytkowników!

Nie masz konta? Zarejestruj się za darmo!
----------------
Links are not encoded only for registered users only! Plese login or register!

Mój upload | My Upload
Bez hasła | No password

Informacje

Jeżeli chcesz skomentować artykuł musisz być zarejestrowany na stronie.