EXSite.pl - Portal ze wszystkim Mamy tutaj wszystko

NIE MASZ JESZCZE KONTA? ZAREJESTRUJ SIĘ ZA DARMO!   
Przypomnij hasło X

Colombus Circle (2012) BRRip.XviD.Ac3-Feel-Free

Dodał: dixiluk 1 Marzec 2012 13:50


Colombus Circle (2012) BRRip.XviD.Ac3-Feel-Free

Colombus Circle (2012) BRRip.XviD.Ac3-Feel-Free


..:: OPIS/INFO ::..

Czas trwania: godz. 26 min
Gatunek: hriller
Rezyser: George Gallo
Scenariusz: vin PollakAn heiress who's been shut inside her apartment building for nearly two decades is forced to confront her fears after one of her neighbors is killed and a detective arrives to begin the investigation.


..:: DANE TECHNICZNE ::..

Nazwa Release:Colombus Circle (2012) BRRip.XviD.Ac3-Feel-Free
Waga:925.68 MB
Archiwum:RAR
Dane naprawcze:1%


Format : AVI
Format/Info : Audio Video Interleave
File size : 926 MiB
Duration : 1h 25mn
Overall bit rate : 1 507 Kbps

Video
ID : 0
Format : MPEG-4 Visual
Format profile : Advanced Simple@L5
Format settings, BVOP : 1
Format settings, QPel : No
Format settings, GMC : No warppoints
Format settings, Matrix : Default (H.263)
Codec ID : XVID
Codec ID/Hint : XviD
Duration : 1h 25mn
Bit rate : 1 049 Kbps
Width : 624 pixels
Height : 264 pixels
Display aspect ratio : 2.35:1
Frame rate : 23.976 fps
Color space : YUV
Chroma subsampling : 4:2:0
Bit depth : 8 bits
Scan type : Progressive
Compression mode : Lossy
Bits/(Pixel*Frame) : 0.266
Stream size : 645 MiB (70%)
Writing library : XviD 1.2.1 (UTC 2008-12-04)

Audio
ID : 1
Format : AC-3
Format/Info : Audio Coding 3
Mode extension : CM (complete main)
Codec ID : 2000
Duration : 1h 25mn
Bit rate mode : Constant
Bit rate : 448 Kbps
Channel(s) : 6 channels
Channel positions : Front: L C R, Side: L R, LFE
Sampling rate : 48.0 KHz
Bit depth : 16 bits
Compression mode : Lossy
Stream size : 275 MiB (30%)
Alignment : Aligned on interleaves
Interleave, duration : 42 ms (1.00 video frame)
Interleave, preload duration : 512 ms


..:: SCREENY ::..


..:: DOWNLOAD ::..

..:: 2 SERWERY. MOŻNA POBIERAĆ NA PRZEMIAN | 400 MB PARTS ::..

..:: HELLSHARE ::..

Uwaga! Linki nie zakodowane tylko dla zarejestrowanych użytkowników!

Nie masz konta? Zarejestruj się za darmo!
----------------
Links are not encoded only for registered users only! Plese login or register!

..:: TURBOBIT ::..

Uwaga! Linki nie zakodowane tylko dla zarejestrowanych użytkowników!

Nie masz konta? Zarejestruj się za darmo!
----------------
Links are not encoded only for registered users only! Plese login or register!

..:: BIG LINK::..

Uwaga! Linki nie zakodowane tylko dla zarejestrowanych użytkowników!

Nie masz konta? Zarejestruj się za darmo!
----------------
Links are not encoded only for registered users only! Plese login or register!

Mój upload | My Upload
Bez hasła | No password

Użytkownik VIP

GHunter Użytkownik

#1 | Dodany: 1 Marzec 2012 13:51

:-)
Użytkownik VIP

gromerrUżytkownik

#2 | Dodany: 1 Marzec 2012 14:55

Columbus Circle 2012 Lektor PL


Dane techniczne:

Rozmiar pliku: 700.0 MiB (734017536 bajtów)
Czas trwania: 01:22:18.048 (4938048 ms)
Ogólne bitrate pliku: 1 189 Kbps
Format: AVI

Video FPS: 25.000
Video kodek: XviD
Video bitrate: 1 045 Kbps
Video rozdzielczość: 672x272
Video rozmiar: 615 MiB (88%)
Video proporcje obrazu: 2.471

Audio format: MPEG Audio
Audio format wynik:
Audio bitrate: 131 Kbps
Audio liczba kanałów: 2
Audio sampling rate: 48.0 KHz
Audio resolution:
Audio rozmiar: 77.3 MiB (11%)




Opis uploadu:

Release: Columbus.Circle.2012.Lektor.PL.DVDRip.XVID-TLRG.avi
rodzaj kompresji: brak
zawartość uploadu: .avi
Wersja językowa: lektor pl
Dane naprawcze: brak
wielkość całości:  700mb


Download:

hellshare
Uwaga! Linki nie zakodowane tylko dla zarejestrowanych użytkowników!

Nie masz konta? Zarejestruj się za darmo!
----------------
Links are not encoded only for registered users only! Plese login or register!




HASŁO:
Brak
Użytkownik VIP

ghwaySuper Uploader

#3 | Dodany: 1 Marzec 2012 19:53

Columbus Circle (2012) PL.DVDRip.XviD-BiDA / Lektor PL

Dane techniczne:
Release: PL.DVDRip.XviD-BiDA
Waga: 700 MB
Audio: DVD [lektor PL]
VIDEO: [XVID] 628x256 24bpp 25.000 fps 1063.8 kbps (129.9 kbyte/s)
AUDIO: 48000 Hz, 2 ch, s16le, 128.0 kbit/8.33% (ratio: 16000->192000)


Download - 400 MB Parts:

Hellshare
Uwaga! Linki nie zakodowane tylko dla zarejestrowanych użytkowników!

Nie masz konta? Zarejestruj się za darmo!
----------------
Links are not encoded only for registered users only! Plese login or register!


Turbobit
Uwaga! Linki nie zakodowane tylko dla zarejestrowanych użytkowników!

Nie masz konta? Zarejestruj się za darmo!
----------------
Links are not encoded only for registered users only! Plese login or register!



Download - 1 link:

Hellshare
Uwaga! Linki nie zakodowane tylko dla zarejestrowanych użytkowników!

Nie masz konta? Zarejestruj się za darmo!
----------------
Links are not encoded only for registered users only! Plese login or register!


Turbobit
Uwaga! Linki nie zakodowane tylko dla zarejestrowanych użytkowników!

Nie masz konta? Zarejestruj się za darmo!
----------------
Links are not encoded only for registered users only! Plese login or register!

Informacje

Jeżeli chcesz skomentować artykuł musisz być zarejestrowany na stronie.