EXSite.pl - Portal ze wszystkim Mamy tutaj wszystko

NIE MASZ JESZCZE KONTA? ZAREJESTRUJ SIĘ ZA DARMO!   
Przypomnij hasło X

Tam gdzie ty / Down To You (2000) iNTERNAL.DVDRip.XviD-EXViDiNT

Dodał: dixiluk 2 Marzec 2012 01:05


Tam gdzie ty / Down To You (2000) iNTERNAL.DVDRip.XviD-EXViDiNT

Tam gdzie ty / Down To You (2000) iNTERNAL.DVDRip.XviD-EXViDiNT


..:: OPIS/INFO ::..

Czas trwania: 1 godz. 30 min
Gatunek: Obyczajowy, Komedia rom.
Premiera: 9 lutego 2001
Rezyser: Kris Isacsson
Scenariusz: Kris IsacssonRomantyczna i komediowa opowieść o Alu (Freddie Prinze Jr.) i Imogen (Julia Stiles), młodej parze, której gorący romans przeradza się w pierwszą miłość. Ich historia, rozgrywająca się na tle chaotycznego i przezabawnego życia nowojorskiego college'u, porusza problem odwiecznego konfliktu pomiędzy prawdziwą miłością i pokusą uniknięcia pełnego zaangażowania. W życie pary wkraczają przyjaciele, którzy próbują im dowieść, że z uczuciem nie mają dokąd się spieszyć. Al daje się przekonać. Niestety po zerwaniu nie może dojść do siebie. Myśli tylko o jednym - jak odzyskać największą miłość swojego życia.


..:: DANE TECHNICZNE ::..

Nazwa Release:Tam gdzie ty / Down To You (2000) iNTERNAL.DVDRip.XviD-EXViDiNT
Waga:713.798 MB
Archiwum:RAR
Dane naprawcze:1%


Stats:
Format: AVI
Format/Info: Audio Video Interleave
File size: 702 MiB
Duration: 1h 28mn
Overall bit rate: 1 113 Kbps

Video
ID: 0
Format: MPEG-4 Visual
Format profile: Advanced Simple@L5
Format settings, BVOP: 2
Format settings, QPel: No
Format settings, GMC: No warppoints
Format settings, Matrix: Default (H.263)
Codec ID: XVID
Codec ID/Hint: XviD
Duration: 1h 28mn
Bit rate: 968 Kbps
Width: 640 pixels
Height: 352 pixels
Display aspect ratio: 16:9
Frame rate: 25.000 fps
Color space: YUV
Chroma subsampling: 4:2:0
Bit depth: 8 bits
Scan type: Progressive
Compression mode: Lossy
Bits/(Pixel*Frame): 0.172
Stream size: 611 MiB (87%)
Writing library: XviD 64

Audio
ID: 1
Format: MPEG Audio
Format version: Version 1
Format profile: Layer 3
Mode: Joint stereo
Mode extension: MS Stereo
Codec ID: 55
Codec ID/Hint: MP3
Duration: 1h 28mn
Bit rate mode: Variable
Bit rate: 131 Kbps
Channel(s): 2 channels
Sampling rate: 48.0 KHz
Compression mode: Lossy
Stream size: 82.7 MiB (12%)
Alignment: Aligned on interleaves
Interleave, duration: 24 ms (0.60 video frame)
Interleave, preload duration: 122 ms
Writing library: LAME3.98.4


..:: SCREENY ::..




..:: DOWNLOAD ::..

..:: 2 SERWERY. MOŻNA POBIERAĆ NA PRZEMIAN | 400 MB PARTS ::..

..:: HELLSHARE ::..

Uwaga! Linki nie zakodowane tylko dla zarejestrowanych użytkowników!

Nie masz konta? Zarejestruj się za darmo!
----------------
Links are not encoded only for registered users only! Plese login or register!

..:: TURBOBIT ::..

Uwaga! Linki nie zakodowane tylko dla zarejestrowanych użytkowników!

Nie masz konta? Zarejestruj się za darmo!
----------------
Links are not encoded only for registered users only! Plese login or register!

..:: BIG LINK::..

Uwaga! Linki nie zakodowane tylko dla zarejestrowanych użytkowników!

Nie masz konta? Zarejestruj się za darmo!
----------------
Links are not encoded only for registered users only! Plese login or register!

Mój upload | My Upload
Bez hasła | No password

Użytkownik VIP

madziarka22Użytkownik

#1 | Dodany: 2 Marzec 2012 08:32

nie posiada ten film lektora?

Informacje

Jeżeli chcesz skomentować artykuł musisz być zarejestrowany na stronie.