EXSite.pl - Portal ze wszystkim Mamy tutaj wszystko

NIE MASZ JESZCZE KONTA? ZAREJESTRUJ SIĘ ZA DARMO!   
Przypomnij hasło X

Rycerz pierwszej damy / Guarding Tess (1994) iNTERNAL.DVDRip.XviD-EXViDiNT

Dodał: dixiluk 2 Marzec 2012 01:10


Rycerz pierwszej damy / Guarding Tess (1994) iNTERNAL.DVDRip.XviD-EXViDiNT

Rycerz pierwszej damy / Guarding Tess (1994) iNTERNAL.DVDRip.XviD-EXViDiNT


..:: OPIS/INFO ::..

Czas trwania: 1 godz. 35 min
Gatunek: Komedia, Dramat obyczajowy
Premiera: 11 marca 1994
Rezyser: Hugh Wilson
Scenariusz: Hugh WilsonFilm opowiada o żonie ameryka?skiego prezydenta - wdowie Tess (Shirley MacLaine) i pilnującym jej agencie służb specjalnych Doug Chesnicu (Nicolas Cage). Nie mogą oni dojść do porozumienia, ponieważ Pierwsza Dama uważa jego i jego ludzi za swoją służbę. Akcja rozwija się, gdy wdowa zostaje porwana. . .


..:: DANE TECHNICZNE ::..

Nazwa Release:Rycerz pierwszej damy / Guarding Tess (1994) iNTERNAL.DVDRip.XviD-EXViDiNT
Waga:730.519 MB
Archiwum:RAR
Dane naprawcze:1%


Stats:
Format: AVI
Format/Info: Audio Video Interleave
File size: 702 MiB
Duration: 1h 31mn
Overall bit rate mode: Variable
Overall bit rate: 1 071 Kbps

Video
ID: 0
Format: MPEG-4 Visual
Format profile: Advanced Simple@L5
Format settings, BVOP: 2
Format settings, QPel: No
Format settings, GMC: No warppoints
Format settings, Matrix: Default (H.263)
Codec ID: XVID
Codec ID/Hint: XviD
Duration: 1h 31mn
Bit rate: 935 Kbps
Width: 640 pixels
Height: 352 pixels
Display aspect ratio: 16:9
Frame rate: 25.000 fps
Color space: YUV
Chroma subsampling: 4:2:0
Bit depth: 8 bits
Scan type: Progressive
Compression mode: Lossy
Bits/(Pixel*Frame): 0.166
Stream size: 613 MiB (87%)
Writing library: XviD 64

Audio
ID: 1
Format: MPEG Audio
Format version: Version 1
Format profile: Layer 3
Mode: Joint stereo
Mode extension: MS Stereo
Codec ID: 55
Codec ID/Hint: MP3
Duration: 1h 31mn
Bit rate mode: Variable
Bit rate: 123 Kbps
Channel(s): 2 channels
Sampling rate: 48.0 KHz
Compression mode: Lossy
Stream size: 80.3 MiB (11%)
Alignment: Aligned on interleaves
Interleave, duration: 24 ms (0.60 video frame)
Interleave, preload duration: 471 ms


..:: SCREENY ::..




..:: DOWNLOAD ::..

..:: 2 SERWERY. MOŻNA POBIERAĆ NA PRZEMIAN | 400 MB PARTS ::..

..:: HELLSHARE ::..

Uwaga! Linki nie zakodowane tylko dla zarejestrowanych użytkowników!

Nie masz konta? Zarejestruj się za darmo!
----------------
Links are not encoded only for registered users only! Plese login or register!

..:: TURBOBIT ::..

Uwaga! Linki nie zakodowane tylko dla zarejestrowanych użytkowników!

Nie masz konta? Zarejestruj się za darmo!
----------------
Links are not encoded only for registered users only! Plese login or register!

..:: BIG LINK::..

Uwaga! Linki nie zakodowane tylko dla zarejestrowanych użytkowników!

Nie masz konta? Zarejestruj się za darmo!
----------------
Links are not encoded only for registered users only! Plese login or register!

Mój upload | My Upload
Bez hasła | No password

Informacje

Jeżeli chcesz skomentować artykuł musisz być zarejestrowany na stronie.