EXSite.pl - Portal ze wszystkim Mamy tutaj wszystko

NIE MASZ JESZCZE KONTA? ZAREJESTRUJ SIĘ ZA DARMO!   
Przypomnij hasło X

Pootie Tang - pogromca zła / Pootie Tang (2001) iNTERNAL.DVDRip.XviD-EXViDiNT

Dodał: dixiluk 2 Marzec 2012 01:12


Pootie Tang - pogromca zła / Pootie Tang (2001) iNTERNAL.DVDRip.XviD-EXViDiNT

Pootie Tang - pogromca zła / Pootie Tang (2001) iNTERNAL.DVDRip.XviD-EXViDiNT


..:: OPIS/INFO ::..

Czas trwania: 1 godz. 10 min
Gatunek: Komedia, Musical
Premiera: 29 czerwca 2001
Rezyser: Louis C.K.
Scenariusz: Louis C.K.Kobiety mu nie przepuszczą, a zło go nie pokona. W czym tkwi sekret? Na pewno w ekstrawganckim stylu i niezrozumiałym języku. Pootie Tang podbił serca widzów telewizyjnego programu komediowego "The Chris Rock Show" - as list przebojów, postrach świata przestępczego ukryty pod zajęczą skórą, idol wszystkich dzieciaków i spragnionych miłości kobiet. Walcząc z chciwością, niesprawiedliwością i... niezdrową żywnością, naraża się potężnej korporacji Lecter Corp. Jej właściciel obłąkany Ceo postanawia zmienić superbohatera w superofermę.


..:: DANE TECHNICZNE ::..

Nazwa Release:Pootie Tang - pogromca zła / Pootie Tang (2001) iNTERNAL.DVDRip.XviD-EXViDiNT
Waga:708.250 MB
Archiwum:RAR
Dane naprawcze:1%


Stats:
Format: AVI
Format/Info: Audio Video Interleave
File size: 701 MiB
Duration: 1h 18mn
Overall bit rate mode: Variable
Overall bit rate: 1 256 Kbps

Video
ID: 0
Format: MPEG-4 Visual
Format profile: Advanced Simple@L5
Format settings, BVOP: 2
Format settings, QPel: No
Format settings, GMC: No warppoints
Format settings, Matrix: Default (H.263)
Codec ID: XVID
Codec ID/Hint: XviD
Duration: 1h 18mn
Bit rate: 1 113 Kbps
Width: 640 pixels
Height: 368 pixels
Display aspect ratio: 16:9
Frame rate: 25.000 fps
Color space: YUV
Chroma subsampling: 4:2:0
Bit depth: 8 bits
Scan type: Progressive
Compression mode: Lossy
Bits/(Pixel*Frame): 0.189
Stream size: 621 MiB (89%)
Writing library: XviD 64

Audio
ID: 1
Format: MPEG Audio
Format version: Version 1
Format profile: Layer 3
Mode: Joint stereo
Mode extension: MS Stereo
Codec ID: 55
Codec ID/Hint: MP3
Duration: 1h 18mn
Bit rate mode: Variable
Bit rate: 128 Kbps
Channel(s): 2 channels
Sampling rate: 48.0 KHz
Compression mode: Lossy
Stream size: 72.8 MiB (10%)
Alignment: Aligned on interleaves
Interleave, duration: 24 ms (0.60 video frame)
Interleave, preload duration: 132 ms


..:: SCREENY ::..


..:: DOWNLOAD ::..

..:: 2 SERWERY. MOŻNA POBIERAĆ NA PRZEMIAN | 400 MB PARTS ::..

..:: HELLSHARE ::..

Uwaga! Linki nie zakodowane tylko dla zarejestrowanych użytkowników!

Nie masz konta? Zarejestruj się za darmo!
----------------
Links are not encoded only for registered users only! Plese login or register!

..:: TURBOBIT ::..

Uwaga! Linki nie zakodowane tylko dla zarejestrowanych użytkowników!

Nie masz konta? Zarejestruj się za darmo!
----------------
Links are not encoded only for registered users only! Plese login or register!

..:: BIG LINK::..

Uwaga! Linki nie zakodowane tylko dla zarejestrowanych użytkowników!

Nie masz konta? Zarejestruj się za darmo!
----------------
Links are not encoded only for registered users only! Plese login or register!

Mój upload | My Upload
Bez hasła | No password

Informacje

Jeżeli chcesz skomentować artykuł musisz być zarejestrowany na stronie.