EXSite.pl - Portal ze wszystkim Mamy tutaj wszystko

NIE MASZ JESZCZE KONTA? ZAREJESTRUJ SIĘ ZA DARMO!   
Przypomnij hasło X

Same kłopoty / Nothing But Trouble (1991) iNTERNAL.DVDRip.XviD-EXViDiNT

Dodał: dixiluk 2 Marzec 2012 01:18


Same kłopoty / Nothing But Trouble (1991) iNTERNAL.DVDRip.XviD-EXViDiNT

Same kłopoty / Nothing But Trouble (1991) iNTERNAL.DVDRip.XviD-EXViDiNT


..:: OPIS/INFO ::..

Czas trwania: 1 godz. 34 min
Gatunek: Horror, Komedia, Przygodowy
Premiera: 15 lutego 1991
Rezyser: Dan Aykroyd
Scenariusz: Dan AykroydCzworo znajomych wybiera się na spotkanie biznesowe. Pech chce, że po drodze trafiają do najdziwniejszego miasteczka w Ameryce - rządzi nim zblazowany sędzia i jego dziwaczna rodzina, a nie ameryka?skie prawo. Niestety nasi bohaterowie ignorują znak STOP znajdujący się na jednym ze skrzyżowa? w miasteczku, a surowy sędzia nie puści płazem tak poważnego przestępstwa. Cała czwórka zostaje uwięziona w nietypowym lochu...


..:: DANE TECHNICZNE ::..

Nazwa Release:Same kłopoty / Nothing But Trouble (1991) iNTERNAL.DVDRip.XviD-EXViDiNT
Waga:1.393 GB
Archiwum:RAR
Dane naprawcze:1%


Stats:
Format: AVI
Format/Info: Audio Video Interleave
Format profile: OpenDML
File size: 1.36 GiB
Duration: 1h 29mn
Overall bit rate: 2 179 Kbps

Video
ID: 0
Format: MPEG-4 Visual
Format profile: Advanced Simple@L5
Format settings, BVOP: 2
Format settings, QPel: No
Format settings, GMC: No warppoints
Format settings, Matrix: Default (MPEG)
Codec ID: XVID
Codec ID/Hint: XviD
Duration: 1h 29mn
Bit rate: 1 981 Kbps
Width: 640 pixels
Height: 360 pixels
Display aspect ratio: 16:9
Frame rate: 25.000 fps
Color space: YUV
Chroma subsampling: 4:2:0
Bit depth: 8 bits
Scan type: Progressive
Compression mode: Lossy
Bits/(Pixel*Frame): 0.344
Stream size: 1.24 GiB (91%)
Writing library: XviD 64

Audio
ID: 1
Format: AC-3
Format/Info: Audio Coding 3
Format profile: Dolby Digital
Mode extension: CM (complete main)
Codec ID: 2000
Duration: 1h 29mn
Bit rate mode: Constant
Bit rate: 192 Kbps
Channel(s): 2 channels
Channel positions: Front: L R
Sampling rate: 48.0 KHz
Bit depth: 16 bits
Compression mode: Lossy
Delay relative to video: 40ms
Stream size: 123 MiB (9%)
Alignment: Split accross interleaves
Interleave, duration: 500 ms (12.50 video frames)
Interleave, preload duration: 500 ms


..:: SCREENY ::..




..:: DOWNLOAD ::..

..:: 2 SERWERY. MOŻNA POBIERAĆ NA PRZEMIAN | 400 MB PARTS ::..

..:: HELLSHARE ::..

Uwaga! Linki nie zakodowane tylko dla zarejestrowanych użytkowników!

Nie masz konta? Zarejestruj się za darmo!
----------------
Links are not encoded only for registered users only! Plese login or register!

..:: TURBOBIT ::..

Uwaga! Linki nie zakodowane tylko dla zarejestrowanych użytkowników!

Nie masz konta? Zarejestruj się za darmo!
----------------
Links are not encoded only for registered users only! Plese login or register!

..:: BIG LINK::..

Uwaga! Linki nie zakodowane tylko dla zarejestrowanych użytkowników!

Nie masz konta? Zarejestruj się za darmo!
----------------
Links are not encoded only for registered users only! Plese login or register!

Mój upload | My Upload
Bez hasła | No password

Użytkownik VIP

BlodVarkVIP Uploader

#1 | Dodany: 2 Marzec 2012 01:18

ok
Użytkownik VIP

Stan63Użytkownik

#2 | Dodany: 2 Marzec 2012 02:10

ok 5 ok
Użytkownik VIP

LsdUżytkownik

#3 | Dodany: 7 Marzec 2012 02:55

a gdzie napis y ??

Informacje

Jeżeli chcesz skomentować artykuł musisz być zarejestrowany na stronie.