EXSite.pl - Portal ze wszystkim Mamy tutaj wszystko

NIE MASZ JESZCZE KONTA? ZAREJESTRUJ SIĘ ZA DARMO!   
Przypomnij hasło X

Dar z nieba / Picking Up The Pieces (2000) iNTERNAL.DVDRip.XviD-EXViDiNT

Dodał: dixiluk 2 Marzec 2012 01:20


Dar z nieba / Picking Up The Pieces (2000) iNTERNAL.DVDRip.XviD-EXViDiNT

Dar z nieba / Picking Up The Pieces (2000) iNTERNAL.DVDRip.XviD-EXViDiNT


..:: OPIS/INFO ::..

Czas trwania: 1 godz. 35 min
Gatunek: Fantasy, Komedia
Premiera: 26 maja 2000
Rezyser: Alfonso Arau
Scenariusz: Bill Wilson"Dar z nieba" to film, który w humorystyczny sposób pokazuje nam jak z religii zrobić dobry interes. Tex Coley ( Woody Allen ), żydowski rzeźnik, po upewnieniu się, że jest zdradzany przez żonę, w fachowy sposób ćwiartuje ją, a następnie zakopuje jej szczątki. Niestety dla niego, gubi on dło? nieboszczki o którą potyka się niewidoma kobieta. Na skutek tego odzyskała wzrok i przekonana, że to ręka Maryi zanosi ją do wiejskiego Kościoła. W krótkim czasie staje się on miejscem kultu i cudownych


..:: DANE TECHNICZNE ::..

Nazwa Release:Dar z nieba / Picking Up The Pieces (2000) iNTERNAL.DVDRip.XviD-EXViDiNT
Waga:1.386 GB
Archiwum:RAR
Dane naprawcze:1%


Stats:
Format: AVI
Format/Info: Audio Video Interleave
Format profile: OpenDML
File size: 1.36 GiB
Duration: 1h 31mn
Overall bit rate: 2 137 Kbps

Video
ID: 0
Format: MPEG-4 Visual
Format profile: Advanced Simple@L5
Format settings, BVOP: 2
Format settings, QPel: No
Format settings, GMC: No warppoints
Format settings, Matrix: Default (MPEG)
Codec ID: XVID
Codec ID/Hint: XviD
Duration: 1h 31mn
Bit rate: 1 683 Kbps
Width: 640 pixels
Height: 320 pixels
Display aspect ratio: 2.000
Frame rate: 25.000 fps
Color space: YUV
Chroma subsampling: 4:2:0
Bit depth: 8 bits
Scan type: Progressive
Compression mode: Lossy
Bits/(Pixel*Frame): 0.329
Stream size: 1.07 GiB (79%)
Writing library: XviD 64

Audio
ID: 1
Format: AC-3
Format/Info: Audio Coding 3
Mode extension: CM (complete main)
Codec ID: 2000
Duration: 1h 31mn
Bit rate mode: Constant
Bit rate: 448 Kbps
Channel(s): 6 channels
Channel positions: Front: L C R, Side: L R, LFE
Sampling rate: 48.0 KHz
Bit depth: 16 bits
Compression mode: Lossy
Delay relative to video: 40ms
Stream size: 293 MiB (21%)
Alignment: Split accross interleaves
Interleave, duration: 500 ms (12.50 video frames)
Interleave, preload duration: 500 ms


..:: SCREENY ::..


..:: DOWNLOAD ::..

..:: 2 SERWERY. MOŻNA POBIERAĆ NA PRZEMIAN | 400 MB PARTS ::..

..:: HELLSHARE ::..

Uwaga! Linki nie zakodowane tylko dla zarejestrowanych użytkowników!

Nie masz konta? Zarejestruj się za darmo!
----------------
Links are not encoded only for registered users only! Plese login or register!

..:: TURBOBIT ::..

Uwaga! Linki nie zakodowane tylko dla zarejestrowanych użytkowników!

Nie masz konta? Zarejestruj się za darmo!
----------------
Links are not encoded only for registered users only! Plese login or register!

..:: BIG LINK::..

Uwaga! Linki nie zakodowane tylko dla zarejestrowanych użytkowników!

Nie masz konta? Zarejestruj się za darmo!
----------------
Links are not encoded only for registered users only! Plese login or register!

Mój upload | My Upload
Bez hasła | No password

Użytkownik VIP

maniek67Użytkownik

#1 | Dodany: 2 Marzec 2012 11:06

o kod do rozpakowania?
Użytkownik VIP

darolekUżytkownik

#2 | Dodany: 2 Marzec 2012 21:27

... czyli jak żydzi ( Allen, Shwimmer) szydzą z twojej wiary ...
Spróbój się pośmiać z ich wiary. Zostaniesz nazwany ANTYSEMITĄ ...
GóWno czytasz - gówno wiesz !

Informacje

Jeżeli chcesz skomentować artykuł musisz być zarejestrowany na stronie.