EXSite.pl - Portal ze wszystkim Mamy tutaj wszystko

NIE MASZ JESZCZE KONTA? ZAREJESTRUJ SIĘ ZA DARMO!   
Przypomnij hasło X

Drużyna marze? / The Dream Team (1989) iNTERNAL.DVDRip.XviD-EXViDiNT

Dodał: dixiluk 2 Marzec 2012 01:22


Drużyna marze? / The Dream Team (1989) iNTERNAL.DVDRip.XviD-EXViDiNT

Drużyna marze? / The Dream Team (1989) iNTERNAL.DVDRip.XviD-EXViDiNT


..:: OPIS/INFO ::..

Czas trwania: 1 godz. 53 min
Gatunek: Komedia
Premiera: 7 kwietnia 1989
Rezyser: Howard Zieff
Scenariusz: Jon ConnollyDoktor Weitzman, bardzo postępowy psychiatra, postanawia zabrać swoich pacjentów z zakładu zamkniętego na mecz Yankesów do Nowego Jorku. Po drodze, gdy autobus zatrzymuje się na chwilę, doktor zostaje przez pomyłkę ciążko pobity. Nieprzytomny trafia do szpitala. Jego podopieczni sami kontynuują podróż. Znalazłszy się w centrum pulsującego życiem wielkiego miasta, nagle spostrzegają, w jakiej są opresji. Wówczas odkrywają w sobie ducha zespołowego, dzięki czemu udaje się im przetrwać.


..:: DANE TECHNICZNE ::..

Nazwa Release:Drużyna marze? / The Dream Team (1989) iNTERNAL.DVDRip.XviD-EXViDiNT
Waga:1.405 GB
Archiwum:RAR
Dane naprawcze:1%


Stats:
Format: AVI
Format/Info: Audio Video Interleave
Format profile: OpenDML
File size: 1.36 GiB
Duration: 1h 47mn
Overall bit rate: 1 808 Kbps

Video
ID: 0
Format: MPEG-4 Visual
Format profile: Advanced Simple@L5
Format settings, BVOP: 2
Format settings, QPel: No
Format settings, GMC: No warppoints
Format settings, Matrix: Default (MPEG)
Codec ID: XVID
Codec ID/Hint: XviD
Duration: 1h 47mn
Bit rate: 1 610 Kbps
Width: 624 pixels
Height: 336 pixels
Display aspect ratio: 1.857
Frame rate: 25.000 fps
Color space: YUV
Chroma subsampling: 4:2:0
Bit depth: 8 bits
Scan type: Progressive
Compression mode: Lossy
Bits/(Pixel*Frame): 0.307
Stream size: 1.21 GiB (89%)
Writing library: XviD 64

Audio
ID: 1
Format: AC-3
Format/Info: Audio Coding 3
Format profile: Dolby Digital
Mode extension: CM (complete main)
Codec ID: 2000
Duration: 1h 47mn
Bit rate mode: Constant
Bit rate: 192 Kbps
Channel(s): 2 channels
Channel positions: Front: L R
Sampling rate: 48.0 KHz
Bit depth: 16 bits
Compression mode: Lossy
Delay relative to video: 40ms
Stream size: 148 MiB (11%)
Alignment: Split accross interleaves
Interleave, duration: 500 ms (12.50 video frames)
Interleave, preload duration: 500 ms


..:: SCREENY ::..




..:: DOWNLOAD ::..

..:: 2 SERWERY. MOŻNA POBIERAĆ NA PRZEMIAN | 400 MB PARTS ::..

..:: HELLSHARE ::..

Uwaga! Linki nie zakodowane tylko dla zarejestrowanych użytkowników!

Nie masz konta? Zarejestruj się za darmo!
----------------
Links are not encoded only for registered users only! Plese login or register!

..:: TURBOBIT ::..

Uwaga! Linki nie zakodowane tylko dla zarejestrowanych użytkowników!

Nie masz konta? Zarejestruj się za darmo!
----------------
Links are not encoded only for registered users only! Plese login or register!

..:: BIG LINK::..

Uwaga! Linki nie zakodowane tylko dla zarejestrowanych użytkowników!

Nie masz konta? Zarejestruj się za darmo!
----------------
Links are not encoded only for registered users only! Plese login or register!

Mój upload | My Upload
Bez hasła | No password

Użytkownik VIP

Stan63Użytkownik

#1 | Dodany: 2 Marzec 2012 01:43

ok 5 ok
Użytkownik VIP

tsa71Użytkownik

#2 | Dodany: 2 Marzec 2012 07:45

doczytać się czy film jest w wersji z napisami czy z lektorem PL graniczy z cudem
Użytkownik VIP

ronni2222Użytkownik

#3 | Dodany: 2 Marzec 2012 08:51

PL czy napisy ?

Informacje

Jeżeli chcesz skomentować artykuł musisz być zarejestrowany na stronie.