EXSite.pl - Portal ze wszystkim Mamy tutaj wszystko

NIE MASZ JESZCZE KONTA? ZAREJESTRUJ SIĘ ZA DARMO!   
Przypomnij hasło X

Goon (2011) HDRIP.Xvid-BHRG

Dodał: dixiluk 2 Marzec 2012 02:52


Goon (2011) HDRIP.Xvid-BHRG

Goon (2011) HDRIP.Xvid-BHRG


..:: OPIS/INFO ::..

Czas trwania: 1 godz. 32 min
Gatunek: Komedia, Sportowy
Premiera: 10 września 2011
Rezyser: Michael Dowse
Scenariusz: Jay BaruchelLabeled an outcast by his brainy family, a bouncer overcomes long odds to lead a team of under performing misfits to semi-pro hockey glory, beating the crap out of everything that stands in his way.


..:: DANE TECHNICZNE ::..

Nazwa Release:Goon (2011) HDRIP.Xvid-BHRG
Waga:710.673 MB
Archiwum:RAR
Dane naprawcze:1%


info
File size : 701 MiB
Duration : 1h 31mn
Overall bit rate : 1 069 Kbps

Video
ID : 0
Format : MPEG-4 Visual
Format profile : Advanced Simple@L5
Format settings, BVOP : 2
Format settings, QPel : No
Format settings, GMC : No warppoints
Format settings, Matrix : Default (H.263)
Codec ID : XVID
Codec ID/Hint : XviD
Duration : 1h 31mn
Bit rate : 935 Kbps
Width : 608 pixels
Height : 336 pixels
Display aspect ratio : 16:9
Frame rate : 23.976 fps
Color space : YUV
Chroma subsampling : 4:2:0
Bit depth : 8 bits
Scan type : Progressive
Compression mode : Lossy
Bits/(Pixel*Frame) : 0.191
Stream size : 613 MiB (87%)
Writing library : XviD 1.2.1 (UTC 2008-12-04)

Audio
ID : 1
Format : MPEG Audio
Format version : Version 1
Format profile : Layer 3
Mode : Joint stereo
Mode extension : MS Stereo
Codec ID : 55
Codec ID/Hint : MP3
Duration : 1h 31mn
Bit rate mode : Constant
Bit rate : 128 Kbps
Channel(s) : 2 channels
Sampling rate : 48.0 KHz
Compression mode : Lossy
Stream size : 83.9 MiB (12%)
Alignment : Aligned on interleaves
Interleave, duration : 167 ms (4.00 video frames)
Interleave, preload duration : 216 ms
Title : Goon.2011.720p.HDRiP.AC3-5.1.x264-SiC - [2]
Writing library : LAME3.99r
Encoding settings : -m j -V 4 -q 2 -lowpass 17 -b 128


..:: SCREENY ::..




..:: DOWNLOAD ::..

..:: 2 SERWERY. MOŻNA POBIERAĆ NA PRZEMIAN | 400 MB PARTS ::..

..:: HELLSHARE ::..

Uwaga! Linki nie zakodowane tylko dla zarejestrowanych użytkowników!

Nie masz konta? Zarejestruj się za darmo!
----------------
Links are not encoded only for registered users only! Plese login or register!

..:: TURBOBIT ::..

Uwaga! Linki nie zakodowane tylko dla zarejestrowanych użytkowników!

Nie masz konta? Zarejestruj się za darmo!
----------------
Links are not encoded only for registered users only! Plese login or register!

..:: BIG LINK::..

Uwaga! Linki nie zakodowane tylko dla zarejestrowanych użytkowników!

Nie masz konta? Zarejestruj się za darmo!
----------------
Links are not encoded only for registered users only! Plese login or register!

Mój upload | My Upload
Bez hasła | No password

Użytkownik VIP

ghwaySuper Uploader

#1 | Dodany: 2 Marzec 2012 07:12

GooN (2011) HDRiP.XviD-GooN

Dane techniczne:
Video:
Format: AVI ( XviD )
Length: 01:31:40
Frame Width: 640
Frame Height: 352
Data Rate: 932kbps
Total Bitrate: 1060kbps
Frame Rate: 23Frames/Second

Audio:
Format: MP3
Birate: 128kbps
Channels: 2 ( Stereo )
Audio Sample Rate: 48KHz

Source: SiC (Cheers)


Download - 1 link:

Hellshare
Uwaga! Linki nie zakodowane tylko dla zarejestrowanych użytkowników!

Nie masz konta? Zarejestruj się za darmo!
----------------
Links are not encoded only for registered users only! Plese login or register!
Użytkownik VIP

warrior92VIP

#2 | Dodany: 18 Marzec 2012 22:28

Goon (2011) PLSUBBED.HDRip.XviD-BiDA | WTOPiONE NAPiSY PL [701 MB]

DANE TECHNiCZNE

NAZWA RELEASU: Goon.2011.LSUBBED.HDRip.XviD-BiDA

ROZMiAR/SiZE:
AVI at 1.069 Kb/s
701 MB for 1h 31 min. 39s 244ms

ViDEO:
MPEG-4 Visual at 932 Kb/s
704 x 396 (1.778) at 23.976 fps

AUDiO:
MPEG Audio at 128 Kb/s
2 kanały, 44,1 KHz


OPiS UPLOADU

WiELKOśĆ UPLOADU: 701 MB
RODZAJ KOMPRESJi: .RAR
ZAWARTOśĆ UPLOADU: PLiK .AVi
WERSJA J?ZYKOWA: POLSKiE NAPiSY (WTOPiONE)
LiNKi ZAMiENNE: TAK
DANE NAPRAWCZE: 1%
BEZ HASŁA


ZDJ?CiA / SCREENS

http://www.pixhost.org/show/3206/11678859_screenshot-00001.png

http://www.pixhost.org/show/3206/11678860_screenshot-00002.png

http://www.pixhost.org/show/3206/11678861_screenshot-00003.png

PRÓBKA FiLMU

http://www4.zippyshare.com/v/28892542/file.html


POBiERZ / DOWNLOAD

PARTY PO 250MB
BEZ HASŁA || 1% DANYCH NAPRAWCZYCH || MOŻNA POBiERAĆ NA PRZEMiAN

Uwaga! Linki nie zakodowane tylko dla zarejestrowanych użytkowników!

Nie masz konta? Zarejestruj się za darmo!
----------------
Links are not encoded only for registered users only! Plese login or register!



TYLKO 1 LiNK
BEZ HASŁA || 1% DANYCH NAPRAWCZYCH

Uwaga! Linki nie zakodowane tylko dla zarejestrowanych użytkowników!

Nie masz konta? Zarejestruj się za darmo!
----------------
Links are not encoded only for registered users only! Plese login or register!

Informacje

Jeżeli chcesz skomentować artykuł musisz być zarejestrowany na stronie.