EXSite.pl - Portal ze wszystkim Mamy tutaj wszystko

NIE MASZ JESZCZE KONTA? ZAREJESTRUJ SIĘ ZA DARMO!   
Przypomnij hasło X

Spider-Man 2 (2004) 720p.BRRiP.DTS.x264-SiC

Dodał: ampatinis 5 Marzec 2012 18:53


Spider-Man 2 (2004) 720p.BRRiP.DTS.x264-SiC

Spider-Man 2 (2004) 720p.BRRiP.DTS.x264-SiC

Spider-Man 2 (2004) 720p.BRRiP.DTS.x264-SiC
czas trwania: 2 godz. 7 min.
gatunek: Akcja, Sci-Fi
premiera: 20 sierpnia 2004 (Polska) 30 czerwca 2004 (świat)
produkcja: USA
reżyseria: Sam Raimi
scenariusz: Alvin Sargent

Życie prywatne studenta Petera Parkera (Tobey Maguire), który jako Spider-Man walczy z zagrażającymi mieszka?com Nowego Jorku przestępcami, nie układa się najlepiej. Traci kolejną już pracę. Mary Jane Watson (Kirsten Dunst), w której jest zakochany, robi karierę jako aktorka i planuje wyjść za mąż za słynnego astronautę, Johna Jamesona (Daniel Gillies), syna niechętnego człowiekowi pająkowi J. Jonaha Jamesona (J.K. Simmons), redaktora naczelnego gazety "Daily Bugle". Peter jest zniechęcony - zamierza porzucić rolę superbohatera i rozpocząć normalne życie. Psują się też jego relacje z przyjacielem, bogatym biznesmenem Harrym Osbornem (James Franco), który wciąż nie może pogodzić się ze śmiercią ojca. O tragedię tę obwinia Spider-Mana. Chce się na nim zemścić. Aby osiągnąć swój cel, zawiera układ z doktorem Otto Octaviusem (Alfred Molina) - pomoże mu w jego eksperymentach, jeśli on schwyta i dostarczy mu człowieka pająka.

General:
Complete name : Spider-man.2.Extended.Cut.2004.720p.BRRiP.DTS.x264-SiC.mkv
Format : Matroska
Format version : Version 2
File size : 2.71 GiB
Duration : 2h 15mn
Overall bit rate : 2 861 Kbps
Encoded date : UTC 2012-02-27 16:49:47
Writing application : mkvmerge v5.2.1 ('A Far Off Place') built on Jan 2 2012 23:21:10
Writing library : libebml v1.2.3 + libmatroska v1.3.0

Video
ID : 1
Format : AVC
Format/Info : Advanced Video Codec
Format profile : High@L4.1
Format settings, CABAC : Yes
Format settings, ReFrames : 3 frames
Codec ID : V_MPEG4/ISO/AVC
Duration : 2h 15mn
Bit rate : 2 105 Kbps
Width : 1 280 pixels
Height : 528 pixels
Display aspect ratio : 2.40:1
Frame rate : 23.976 fps
Color space : YUV
Chroma subsampling : 4:2:0
Bit depth : 8 bits
Scan type : Progressive
Bits/(Pixel*Frame) : 0.130
Stream size : 1.94 GiB (72%)
Title : Spider-man.2.Extended.Cut.2004.720p.BRRiP.DTS.x264-SiC
Writing library : x264 core 120 r2164 da19765
Language : English
Default : Yes
Forced : No

Audio
ID : 2
Format : DTS
Format/Info : Digital Theater Systems
Codec ID : A_DTS
Duration : 2h 15mn
Bit rate mode : Constant
Bit rate : 755 Kbps
Channel(s) : 6 channels
Channel positions : Front: L C R, Side: L R, LFE
Sampling rate : 48.0 KHz
Bit depth : 24 bits
Compression mode : Lossy
Stream size : 733 MiB (26%)
Language : English
Default : Yes
Forced : No


Spider-Man 2 (2004) 720p.BRRiP.DTS.x264-SiC

Spider-Man 2 (2004) 720p.BRRiP.DTS.x264-SiC Spider-Man 2 (2004) 720p.BRRiP.DTS.x264-SiC

Spider-Man 2 (2004) 720p.BRRiP.DTS.x264-SiC
Uwaga! Linki nie zakodowane tylko dla zarejestrowanych użytkowników!

Nie masz konta? Zarejestruj się za darmo!
----------------
Links are not encoded only for registered users only! Plese login or register!



Informacje

Jeżeli chcesz skomentować artykuł musisz być zarejestrowany na stronie.