EXSite.pl - Portal ze wszystkim Mamy tutaj wszystko

NIE MASZ JESZCZE KONTA? ZAREJESTRUJ SIĘ ZA DARMO!   
Przypomnij hasło X

Columbus Circle (2012) 720p.BRRip.XviD.AC3-26k

Dodał: ampatinis 6 Marzec 2012 20:56


Columbus Circle (2012) 720p.BRRip.XviD.AC3-26k

Columbus Circle (2012) 720p.BRRip.XviD.AC3-26k

Columbus Circle (2012) 720p.BRRip.XviD.AC3-26k
gatunek: Thriller
produkcja: USA
reżyseria: George Gallo
scenariusz: Kevin Pollak, George Gallo

W hallu jednego z budynków na Manhatanie, w którym mieszka samotna dziedziczka Abigail (Selma Blair), ginie starsza kobieta. Teraz milionerka będzie musiała stawić czoła swoim lękom, gdy pojawi się na horyzoncie podejrzliwy detektyw prowadzący śledztwo w sprawie śmierci starszej pani. Na dodatek jej nowi sąsiedzi nie wzbudzają jej zaufania. Z ich mieszkania dochodzą dziwne odgłosy i skrawki niepokojących rozmów...

Sources - Colombus.Circle.2012.1080p.BluRay.x264-CiNEFiLE.....Thanks

Format : AVI
Format/Info : Audio Video Interleave
Format profile : OpenDML
File size : 1.99 GiB
Duration : 1h 25mn
Overall bit rate : 3 324 Kbps
Writing library : VirtualDub build 32842/release

Video
ID : 0
Format : MPEG-4 Visual
Format profile : Advanced Simple@L5
Format settings, BVOP : 2
Format settings, QPel : No
Format settings, GMC : No warppoints
Format settings, Matrix : Default (H.263)
Codec ID : XVID
Codec ID/Hint : XviD
Duration : 1h 25mn
Bit rate : 2 672 Kbps
Width : 1 280 pixels
Height : 528 pixels
Display aspect ratio : 2.40:1
Frame rate : 23.976 fps
Color space : YUV
Chroma subsampling : 4:2:0
Bit depth : 8 bits
Scan type : Progressive
Compression mode : Lossy
Bits/(Pixel*Frame) : 0.165
Stream size : 1.60 GiB (80%)
Writing library : XviD 1.2.1 (UTC 2008-12-04)

Audio
ID : 1
Format : AC-3
Format/Info : Audio Coding 3
Mode extension : CM (complete main)
Codec ID : 2000
Duration : 1h 25mn
Bit rate mode : Constant
Bit rate : 640 Kbps
Channel(s) : 6 channels
Channel positions : Front: L C R, Side: L R, LFE
Sampling rate : 48.0 KHz
Bit depth : 16 bits
Compression mode : Lossy
Stream size : 393 MiB (19%)
Alignment : Split accross interleaves
Interleave, duration : 42 ms (1.00 video frame)
Interleave, preload duration : 500 ms


Columbus Circle (2012) 720p.BRRip.XviD.AC3-26k

Columbus Circle (2012) 720p.BRRip.XviD.AC3-26k

Columbus Circle (2012) 720p.BRRip.XviD.AC3-26k
Uwaga! Linki nie zakodowane tylko dla zarejestrowanych użytkowników!

Nie masz konta? Zarejestruj się za darmo!
----------------
Links are not encoded only for registered users only! Plese login or register!



Użytkownik VIP

BlodVarkVIP Uploader

#1 | Dodany: 6 Marzec 2012 20:56

ok
Użytkownik VIP

ghwaySuper Uploader

#2 | Dodany: 6 Marzec 2012 20:58

Columbus Circle (2012) PL.DVDRip.XviD-BiDA / Lektor PL

Dane techniczne:
Release: PL.DVDRip.XviD-BiDA
Waga: 700 MB
Audio: DVD [lektor PL]
VIDEO: [XVID] 628x256 24bpp 25.000 fps 1063.8 kbps (129.9 kbyte/s)
AUDIO: 48000 Hz, 2 ch, s16le, 128.0 kbit/8.33% (ratio: 16000->192000)


Download - 400 MB Parts:

Hellshare
Uwaga! Linki nie zakodowane tylko dla zarejestrowanych użytkowników!

Nie masz konta? Zarejestruj się za darmo!
----------------
Links are not encoded only for registered users only! Plese login or register!


Turbobit
Uwaga! Linki nie zakodowane tylko dla zarejestrowanych użytkowników!

Nie masz konta? Zarejestruj się za darmo!
----------------
Links are not encoded only for registered users only! Plese login or register!



Download - 1 link:

Hellshare
Uwaga! Linki nie zakodowane tylko dla zarejestrowanych użytkowników!

Nie masz konta? Zarejestruj się za darmo!
----------------
Links are not encoded only for registered users only! Plese login or register!


Turbobit
Uwaga! Linki nie zakodowane tylko dla zarejestrowanych użytkowników!

Nie masz konta? Zarejestruj się za darmo!
----------------
Links are not encoded only for registered users only! Plese login or register!
Użytkownik VIP

dżinnUżytkownik

#3 | Dodany: 6 Marzec 2012 21:09

Columbus Circle (2012) PL.DVDRip.XviD-BiDA / Lektor PL

Info:
Release...........: Columbus Circle (2012) PL.DVDRip.XviD-BiDA

Format............: AVI
Length............: 700 MiB for 1h 22mn 18s

Video.............: MPEG-4 Visual at 1 063 Kb/s
Aspect...........: 628 x 256 at 25.000 fps

Audio.............: MPEG Audio at 128 Kb/s
Infos...............: 2 channels, 48.0 KHz


Wielkość Uploadu.....: 700 MB
Rodzaj Kompresji......: Brak
Zawartość Uploadu....: Plik .avi
Wersja Językowa......: Lektor PL
Dane Naprawcze.......: Brak
Hasło.......................: Brak



Download:
Uwaga! Linki nie zakodowane tylko dla zarejestrowanych użytkowników!

Nie masz konta? Zarejestruj się za darmo!
----------------
Links are not encoded only for registered users only! Plese login or register!

Informacje

Jeżeli chcesz skomentować artykuł musisz być zarejestrowany na stronie.