EXSite.pl - Portal ze wszystkim Mamy tutaj wszystko

NIE MASZ JESZCZE KONTA? ZAREJESTRUJ SIĘ ZA DARMO!   
Przypomnij hasło X

Oko / The Eye (2008) 720p.BRRIP.X264.AC3-CrEwSaDe

Dodał: ampatinis 8 Marzec 2012 21:29


Oko / The Eye (2008) 720p.BRRIP.X264.AC3-CrEwSaDe

Oko / The Eye (2008) 720p.BRRIP.X264.AC3-CrEwSaDe

Oko / The Eye (2008) 720p.BRRIP.X264.AC3-CrEwSaDe
Bohaterka straciła wzrok kiedy miała dwa lata, a teraz dzięki skomplikowanej operacji przeszczepu rogówki, będzie mogła na powrót widzieć. Po zdjęciu bandaży okazuje się, że operacja zako?czyła się sukcesem. Widzi jednak nie tylko to co wszyscy inni ludzie.

Encoder ..........: XtC42
Video Codec.......: AVC
Video Bitrate.....: 2365 Kbps
Audio Codec.......: AC3
Audio Bitrate.....: 384 Kbps
Resolution........: 1280X544
Runtime...........: 1h 36mn
Release Date......: 2008
Theatre Date......: n/a
Language..........: English
Subtitles.........: n/a
IMDB Rating.......: 5.2/10
IMDb URL..........: http://www.imdb.com/title/tt0406759/
_______________________________________________________________________________

General

Format : Matroska
Format version : Version 2
File size : 1.85 GiB
Duration : 1h 36mn
Overall bit rate : 2 749 Kbps
Encoded date : UTC 2012-03-07 22:20:00
Writing application : mkvmerge v4.9.1
Writing library : libebml v1.2.1 + libmatroska v1.1.1
________________________________________________________________________________

Video

ID : 1
Format : AVC
Format/Info : Advanced Video Codec
Format profile : High@L3.1
Format settings, CABAC : Yes
Format settings, ReFrames : 4 frames
Codec ID : V_MPEG4/ISO/AVC
Duration : 1h 36mn
Bit rate : 2 365 Kbps
Width : 1 280 pixels
Height : 544 pixels
Display aspect ratio : 2.35:1
Frame rate : 23.976 fps
Color space : YUV
Chroma subsampling : 4:2:0
Bit depth : 8 bits
Scan type : Progressive
Bits/(Pixel*Frame) : 0.142
Stream size : 1.56 GiB (84%)
Writing library : x264 core 116 r2074 2641b9e
_________________________________________________________________________________

Audio

ID : 2
Format : AC-3
Format/Info : Audio Coding 3
Mode extension : CM (complete main)
Codec ID : A_AC3
Duration : 1h 36mn
Bit rate mode : Constant
Bit rate : 384 Kbps
Channel(s) : 6 channels
Channel positions : Front: L C R, Side: L R, LFE
Sampling rate : 48.0 KHz
Bit depth : 16 bits
Compression mode : Lossy
Stream size : 265 MiB (14%)

_________________________________________________________________________________

SOURCES:

VIDEO: The.Eye.2008.MULTi.1080p.BluRay.x264.DTS-PURE Thanks
AUDIO: The.Eye.2008.MULTi.1080p.BluRay.x264.DTS-PURE Thanks


Oko / The Eye (2008) 720p.BRRIP.X264.AC3-CrEwSaDe

Oko / The Eye (2008) 720p.BRRIP.X264.AC3-CrEwSaDe Oko / The Eye (2008) 720p.BRRIP.X264.AC3-CrEwSaDe

Oko / The Eye (2008) 720p.BRRIP.X264.AC3-CrEwSaDe
Uwaga! Linki nie zakodowane tylko dla zarejestrowanych użytkowników!

Nie masz konta? Zarejestruj się za darmo!
----------------
Links are not encoded only for registered users only! Plese login or register!



Informacje

Jeżeli chcesz skomentować artykuł musisz być zarejestrowany na stronie.