EXSite.pl - Portal ze wszystkim Mamy tutaj wszystko

NIE MASZ JESZCZE KONTA? ZAREJESTRUJ SIĘ ZA DARMO!   
Przypomnij hasło X

Absentia (2011) 720p.HDRiP.AC3-5.1.x264-SiC

Dodał: ampatinis 12 Marzec 2012 18:23


Absentia (2011) 720p.HDRiP.AC3-5.1.x264-SiC

Absentia (2011) 720p.HDRiP.AC3-5.1.x264-SiC

Absentia (2011) 720p.HDRiP.AC3-5.1.x264-SiC
gatunek:Horror
produkcja:USA
reżyseria:Mike Flanagan
scenariusz:Mike Flanagan


Główną bohaterką jest Tricia (Courtney Bell), której mąż Daniel (Morgan Peter Brown), zaginął siedem lat temu. Starsza siostra Callie (Katie Parker), namawia ją, by w ko?cu uznała go za zmarłego. Tricia jednak stara się odsunąć tę myśl od siebie, wierząc, że Daniel powróci. Próbując się uporać ze wszystkim, postanawia uprawiać jogging. Pewnego dnia, w trakcie biegania natrafia na tajemniczy, podmiejski tunel. Kiedy zaczyna go łączyć ze zniknięciami innych osób, staje się bliska odkrycia prawdy o mężu.

MediaInfo:
General
Complete name : Absentia.2011.720p.HDRiP.AC3-5.1.x264-SiC.mkv
Format : Matroska
Format version : Version 2
File size : 2.88 GiB
Duration : 1h 31mn
Overall bit rate : 4 523 Kbps
Encoded date : UTC 2012-03-10 19:57:34
Writing application : mkvmerge v4.0.0 ('The Stars were mine') built on Jun 6 2010 16:18:42
Writing library : libebml v1.0.0 + libmatroska v1.0.0

Video
ID : 1
Format : AVC
Format/Info : Advanced Video Codec
Format profile : High@L4.1
Format settings, CABAC : Yes
Format settings, ReFrames : 1 frame
Codec ID : V_MPEG4/ISO/AVC
Duration : 1h 31mn
Bit rate : 4 200 Kbps
Width : 1 280 pixels
Height : 720 pixels
Display aspect ratio : 16:9
Frame rate : 23.976 fps
Color space : YUV
Chroma subsampling : 4:2:0
Bit depth : 8 bits
Scan type : Progressive
Bits/(Pixel*Frame) : 0.190
Stream size : 2.58 GiB (90%)
Writing library : x264 core 68 r1195bm 5d75a9b
Encoding settings : cabac=1 / ref=1 / deblock=1:0:0 / analyse=0x3:0x13 / me=umh / subme=7 / psy_rd=0.0:0.0 / mixed_ref=0 / me_range=16 / chroma_me=1 / trellis=1 / 8x8dct=1 / cqm=0 / deadzone=21,11 / chroma_qp_offset=0 / threads=1 / thread_queue=1 / nr=0 / decimate=1 / mbaff=0 / bframes=0 / keyint=250 / keyint_min=25 / scenecut=40 / rc=abr / bitrate=4200 / ratetol=1.0 / qcomp=0.60 / qpmin=10 / qpmax=51 / qpstep=4 / ip_ratio=1.40 / aq=2:1.00
Default : Yes
Forced : No

Audio
ID : 2
Format : AC-3
Format/Info : Audio Coding 3
Mode extension : CM (complete main)
Codec ID : A_AC3
Duration : 1h 31mn
Bit rate mode : Constant
Bit rate : 384 Kbps
Channel(s) : 6 channels
Channel positions : Front: L C R, Side: L R, LFE
Sampling rate : 48.0 KHz
Bit depth : 16 bits
Compression mode : Lossy
Stream size : 250 MiB (8%)
Default : Yes
Forced : No


Absentia (2011) 720p.HDRiP.AC3-5.1.x264-SiC

Absentia (2011) 720p.HDRiP.AC3-5.1.x264-SiC Absentia (2011) 720p.HDRiP.AC3-5.1.x264-SiC

Absentia (2011) 720p.HDRiP.AC3-5.1.x264-SiC
Uwaga! Linki nie zakodowane tylko dla zarejestrowanych użytkowników!

Nie masz konta? Zarejestruj się za darmo!
----------------
Links are not encoded only for registered users only! Plese login or register!



Użytkownik VIP

ampatinisUżytkownik

#1 | Dodany: 12 Marzec 2012 18:25

http://www.exsite.pl/filmy_video_movies/filmy-dvdrip-brrip/697030-absentia-2011-hdripxvidac3-sic.html


Zdecydowanie inna wersja, od tej zamieszczonej, więc nie uznaje to za dubla.
W razie innej decyzji, niż podjąłem proszę o wyrozumiałość.
Użytkownik VIP

agatka26Użytkownik

#2 | Dodany: 12 Maj 2012 23:37

ok
Absentia (2011) PL.DVDRip.XviD-BiDA LEKTOR PL

Nazwa: Absentia.2011.PL.DVDRip.XviD-BiDA
Data wydania: 12.05.2012
Liczba CD: 1
Parametry: Video - 624x352, XviD ~965 kbps; Audio - MP3 ~128 kbps
Dodatkowe info: Polski Lektor profesjonalny
Hasło/Pass: a26


SCREEN:
http://t3.pixhost.org/thumbs/2135/12209604_1.jpg
http://t3.pixhost.org/thumbs/2135/12209605_2.jpg
http://t3.pixhost.org/thumbs/2135/12209606_3.jpg
http://t3.pixhost.org/thumbs/2135/12209607_4.jpg

party po 700 MB
tylko jeden link!!!


Uwaga! Linki nie zakodowane tylko dla zarejestrowanych użytkowników!

Nie masz konta? Zarejestruj się za darmo!
----------------
Links are not encoded only for registered users only! Plese login or register!

Informacje

Jeżeli chcesz skomentować artykuł musisz być zarejestrowany na stronie.