EXSite.pl - Portal ze wszystkim Mamy tutaj wszystko

NIE MASZ JESZCZE KONTA? ZAREJESTRUJ SIĘ ZA DARMO!   
Przypomnij hasło X

Mission: Impossible - Ghost Protocol (2011) HDRip.x264.AC3-WARHAWK

Dodał: GHunter 14 Marzec 2012 00:01


Mission: Impossible - Ghost Protocol (2011) HDRip.x264.AC3-WARHAWK

Mission: Impossible - Ghost Protocol (2011) HDRip.x264.AC3-WARHAWK

Mission: Impossible - Ghost Protocol (2011) HDRip.x264.AC3-WARHAWK
czas trwania: 2 godz. 13 min.
gatunek: Sensacyjny
premiera: 26 grudnia 2011 (Polska) 7 grudnia 2011 (świat) (więcej...)
produkcja: USA
reżyseria: Brad Bird
scenariusz: Andr? Nemec, Josh Appelbaum

Oskarżony o terrorystyczny zamach bombowy na Kreml, agent IMF Ethan Hunt wraz z resztą zespołu zostaje zwolniony z obowiązków w chwili, kiedy prezydent wdraża "Ghost Protocol". Pozostawiony bez środków i wsparcia, Ethan musi znaleźć sposób na oczyszczenie dobrego imienia agencji oraz uniemożliwienie kolejnego ataku. Sprawę komplikuje fakt, iż Ethan zostaje zmuszony do podjęcia się misji wraz z zespołem byłych agentów IMF, których osobistych motywów do ko?ca nie poznał.

ROZMiAR........: 2000 MB
SOURCE.........: DVD
CZAS TRWANiA...: 2 23 min
ViDEO..........: x264, 1843 kbps, rozdz. 720x320
AUDiO..........: AC3, 384 kbps, 44800 Hz
KOPRESJA.......: .rar

Wtopione Korea?skie/Azjatyckie napisy.



Mission: Impossible - Ghost Protocol (2011) HDRip.x264.AC3-WARHAWK
Uwaga! Linki nie zakodowane tylko dla zarejestrowanych użytkowników!

Nie masz konta? Zarejestruj się za darmo!
----------------
Links are not encoded only for registered users only! Plese login or register!



Użytkownik VIP

GHunter Użytkownik

#1 | Dodany: 14 Marzec 2012 00:03

:-)
Użytkownik VIP

niedzwiedzxVIP

#2 | Dodany: 14 Marzec 2012 00:03

Mission: Impossible - Ghost Protocol (2011) DVDRip.x264.AC3-WARHAWK



General
Impossible Ghost Protocol (2011) DVDRip.x264-AC3-warhawk.mkv
Format : Matroska
Format version : Version 2
File size : 2.00 GiB
Duration : 2h 8mn
Overall bit rate : 2 229 Kbps
Encoded date : UTC 2012-03-13 20:50:41
Writing application : mkvmerge v5.2.1 ('A Far Off Place') built on Jan 2 2012 23:21:10
Writing library : libebml v1.2.3 + libmatroska v1.3.0

Video
ID : 1
Format : AVC
Format/Info : Advanced Video Codec
Format profile : High@L3.0
Format settings, CABAC : Yes
Format settings, ReFrames : 5 frames
Codec ID : V_MPEG4/ISO/AVC
Duration : 2h 8mn
Bit rate : 1 843 Kbps
Width : 720 pixels
Height : 320 pixels
Display aspect ratio : 2.25:1
Frame rate : 23.976 fps
Color space : YUV
Chroma subsampling : 4:2:0
Bit depth : 8 bits
Scan type : Progressive
Bits/(Pixel*Frame) : 0.334
Stream size : 1.61 GiB (81%)
Writing library : x264 core 120 r2164 da19765

Language : English
Audio
ID : 2
Format : AC-3
Format/Info : Audio Coding 3
Mode extension : CM (complete main)
Codec ID : A_AC3
Duration : 2h 8mn
Bit rate mode : Constant
Bit rate : 384 Kbps
Channel(s) : 2 channels
Channel positions : Front: L R
Sampling rate : 48.0 KHz
Bit depth : 16 bits
Compression mode : Lossy
Stream size : 352 MiB (17%)


Hasło/Pass: niedzwiedzx


Uwaga! Linki nie zakodowane tylko dla zarejestrowanych użytkowników!

Nie masz konta? Zarejestruj się za darmo!
----------------
Links are not encoded only for registered users only! Plese login or register!


Uwaga! Linki nie zakodowane tylko dla zarejestrowanych użytkowników!

Nie masz konta? Zarejestruj się za darmo!
----------------
Links are not encoded only for registered users only! Plese login or register!
Jeśli chcesz rozśmieszy? Boga, opowiedz mu o twoich planach na przysz?oś?.
Użytkownik VIP

BlodVarkVIP Uploader

#3 | Dodany: 14 Marzec 2012 00:03

ok
Użytkownik VIP

NonSceneVIP

#6 | Dodany: 14 Marzec 2012 00:09

marulek1988,
DVDSCR...
Użytkownik VIP

amh91VIP

#7 | Dodany: 14 Marzec 2012 00:10

help
.

Audycje - DJ HIT - 18.05.2012 - Hot Hits

Gorąco Polecam ! - Zippyshare.com


.
Użytkownik VIP

POREMBAUżytkownik

#8 | Dodany: 14 Marzec 2012 00:10

moderatorzy cziterzy za 2 zl w nazwie r5 ale wali do dvdrpa i glupich z ludzi robi.
Użytkownik VIP

NonSceneVIP

#9 | Dodany: 14 Marzec 2012 00:12

POREMBA,
to wyszlo na pewnym trackerze, sprawdzamy co to jest wiec nie pisz glupot.
Użytkownik VIP

Dyro81Użytkownik

#10 | Dodany: 14 Marzec 2012 00:13

ok
Użytkownik VIP

GHunter Użytkownik

#11 | Dodany: 14 Marzec 2012 00:16

POREMBA, ty nawet nie wiesz czym R5 jest więc zbastuj, synu.
Użytkownik VIP

POREMBAUżytkownik

#12 | Dodany: 14 Marzec 2012 00:17

GHunter , tak sie skada cziterze, ze wiem o Tobie wszystko i co to r5 xq
Użytkownik VIP

GHunter Użytkownik

#13 | Dodany: 14 Marzec 2012 00:23

POREMBA, czyli to R5, tak?
Użytkownik VIP

POREMBAUżytkownik

#14 | Dodany: 14 Marzec 2012 00:27

GHunter , BRRip lol
Użytkownik VIP

GHunter Użytkownik

#15 | Dodany: 14 Marzec 2012 00:31

HDRip. I tyle winked
Użytkownik VIP

resetheworldUżytkownik

#16 | Dodany: 14 Marzec 2012 00:36

po screenach patrząc to do R5 mu daleko :) no i wypada napisać że napisy są Korean Hardcoded :(


ps. tak czy siak dzięki ale jak by był screen zamieszczony oraz pełniejsze info to byłoby by miło
Użytkownik VIP

GHunter Użytkownik

#18 | Dodany: 14 Marzec 2012 01:07

No kiepawy HDRip, ale to 1 wersja, już robią lepsze ;P
Użytkownik VIP

pirotechnik91Użytkownik

#19 | Dodany: 14 Marzec 2012 11:05

Jakieś napisy PL ktoś wrzuci?
Użytkownik VIP

tomeczek2219Użytkownik

#20 | Dodany: 17 Marzec 2012 18:51

Mission Impossible: Ghost Protocol 2011 R6 HDRip XviD
AC3-S0LAPiS0KA




Dane Techniczne:

Video
Container: XVID
Video Codec Type: XviD
Video bitrate: 1 619 Kbps
Resolution: 720 X 320 pixels
Aspect ratio(AR): 2.25:1
Quality Factor(QF): 0.293
Frame Rate: 23.976 fps
Source: DVDR-YOUWANTBUYDVD Arigato!!!

Audio
Audio Language: English
Audio Codec: AC-3
Bitrate Mode: Constant
Bitrate: 384 Kbps
Sample Rate: 48.0 KHz
Channel Count: 2 channels



Turbobit

http://turbobit.net/6r5xzl2fsqrc.html
smile

Informacje

Jeżeli chcesz skomentować artykuł musisz być zarejestrowany na stronie.