EXSite.pl - Portal ze wszystkim Mamy tutaj wszystko

NIE MASZ JESZCZE KONTA? ZAREJESTRUJ SIĘ ZA DARMO!   
Przypomnij hasło X

Purpurowe rzeki / Rivieres pourpres (2000) PL.DVDRiP.XViD-faldino + x264 + rmvb |Lektor PL

Dodał: faldino12 28 Marzec 2012 18:11


Purpurowe rzeki / Rivieres pourpres (2000) PL.DVDRiP.XViD-faldino |Lektor PL

Purpurowe rzeki / Rivieres pourpres (2000) PL.DVDRiP.XViD-faldino + x264 + rmvb |Lektor PL

gatunek: Kryminał, Thriller
premiera: 13 lipca 2001 (Polska) 2001-07-13 27 września 2000 (świat) 2000-09-27
produkcja: Francja

Opis:
Dwóch policjantów prowadzi dwa niezależne śledztwa - jedno w sprawie morderstwa, drugie - zbezczeszczenia grobu. Wkrótce odkrywają, że sprawy, nad którymi pracują, są ze sobą powiązane


Dane Techniczne:
Source: DVD-NoGrp
Format: AVI 1240 Kb/s
Rozmiar: 870 MB 1h 38min. 5s 284ms
Video: MPEG-4 Visual 1100 Kb/s
Rozdzielczość: 640 x 360 (1.778) 25.000 fps
Audio: MPEG Audio 128 Kb/s
Kanały: 2 kanały, 44.1 KHz


Opis Uploadu:
* Rozmiar - 0,9gb
* Archiwum - bez hasła
* Zawartość - plik .avi
* Rodzaj kompresji - .rar
* Wersja językowa - lektor polski profesjonalny
* Dane naprawcze - 10%

Uwaga! Linki nie zakodowane tylko dla zarejestrowanych użytkowników!

Nie masz konta? Zarejestruj się za darmo!
----------------
Links are not encoded only for registered users only! Plese login or register!


"x264:

Dane Techniczne:
Format: AVI 908 Kb/s
Rozmiar: 637 MB 1h 38min. 5s 200ms
Video: h264 773 Kb/s
Rozdzielczość: 320 x 240 (1.333) 25.000 fps
Audio: MPEG Audio 32.0 Kb/s
Kanały: 2 kanały, 44.1 KHz


Opis Uploadu:
* Rozmiar - 0,6gb
* Archiwum - bez hasła
* Zawartość - plik .avi
* Rodzaj kompresji - .rar
* Wersja językowa - lektor polski profesjonalny
* Dane naprawcze - 10%

Uwaga! Linki nie zakodowane tylko dla zarejestrowanych użytkowników!

Nie masz konta? Zarejestruj się za darmo!
----------------
Links are not encoded only for registered users only! Plese login or register!


"rmvb:

Dane Techniczne:
Format: RealMedia 625 Kb/s
Rozmiar: 447 MB 1h 38min. 6s 721ms
Video: RealVideo 4 529 Kb/s
Rozdzielczość: 640 x 360 (1.778) 25 fps
Audio: Cooker 96.5 Kb/s
Kanały: 2 kanały, 44.1 KHz


Opis Uploadu:
* Rozmiar - 0,4gb
* Archiwum - bez hasła
* Zawartość - plik .rmvb
* Rodzaj kompresji - Brak
* Dane naprawcze - Brak

Uwaga! Linki nie zakodowane tylko dla zarejestrowanych użytkowników!

Nie masz konta? Zarejestruj się za darmo!
----------------
Links are not encoded only for registered users only! Plese login or register!

Użytkownik VIP

_christopher_Użytkownik

#1 | Dodany: 15 Kwiecień 2012 23:08

fellow
Użytkownik VIP

xxczupakabraUżytkownik

#2 | Dodany: 20 Maj 2014 08:01

Purpurowe Rzeki 2 Aniołowie Apokalipsy 2004 720p lektor pl
Opis

Dane techniczne
General
Format                                   : AVI
Format/Info                              : Audio Video Interleave
Format profile                           : OpenDML
File size                                : 2.86 GiB
Duration                                 : 1h 38mn
Overall bit rate                         : 4 146 Kbps
Writing application                      : VirtualDubMod 1.5.10.3 | www.virtualdub-fr.org || (build 2550/release)
Video
Format                                   : MPEG-4 Visual
Format profile                           : Advanced Simple@L5
Codec ID                                 : XVID
Duration                                 : 1h 38mn
Bit rate                                 : 3 495 Kbps
Width                                    : 1 280 pixels
Height                                   : 544 pixels
Display aspect ratio                     : 2.35:1
Frame rate                               : 23.976 fps
Chroma subsampling                       : 4:2:0
Bit depth                                : 8 bits
Scan type                                : Progressive
Bits/(Pixel*Frame)                       : 0.209
Stream size                              : 2.41 GiB (84%)
Writing library                          : XviD 1.2.1 (UTC 2008-12-04)
Audio
Format                                   : AC-3
Format/Info                              : Audio Coding 3
Mode extension                           : CM (complete main)
Codec ID                                 : 2000
Duration                                 : 1h 38mn
Bit rate                                 : 640 Kbps
Channel(s)                               : 6 channels
Channel positions                        : Front: L C R, Side: L R, LFE
Sampling rate                            : 48.0 KHz
Bit depth                                : 16 bits
Stream size                              : 452 MiB (15%)
Alignment                                : Split accross interleaves
Interleave, duration                     : 42 ms (1.00 video frame)
Interleave, preload duration             : 500 ms

Download
http://bitshare.com/files/ikqpip5w/Purpurowewody.part3.rar.html
http://bitshare.com/files/gqk35usx/Purpurowewody.part2.rar.html
http://bitshare.com/files/ghd93cai/Purpurowewody.part1.rar.html

brak hasła

Informacje

Jeżeli chcesz skomentować artykuł musisz być zarejestrowany na stronie.