EXSite.pl - Portal ze wszystkim Mamy tutaj wszystko

NIE MASZ JESZCZE KONTA? ZAREJESTRUJ SIĘ ZA DARMO!   
Przypomnij hasło X

Kupiliśmy Zoo / We Bought A Zoo (2011) DVDRiP.XviD.AC3-REFiLL

Dodał: niedzwiedzx 17 Marzec 2012 00:42


Kupiliśmy Zoo / We Bought A Zoo (2011) DVDRiP.XviD.AC3-REFiLL


Kupiliśmy Zoo / We Bought A Zoo (2011) DVDRiP.XviD.AC3-REFiLL


Komediodramat w reżyserii wyróżnionego Oscarem Camerona Crowe'a ("U progu sławy", "Jerry Maguire"), ekranizacja bestsellerowej książki, opartej na autentycznej historii. Pełna humoru, ale i wzruszająca opowieść o ojcu, który kupuje swej rodzinie niezwykły prezent: ogród zoologiczny z dzikim zwierzętami. Wraz z dziećmi porzuca życie w mieście i wyrusza na prowincję, by przewrócić podupadłemu zoo jego dawną świetność, a przy okazji zacząć życie od nowa i przeżyć przygodę, o której inni mogą tylko pomarzyć. W rolach głównych: nagrodzony Oscarem Matt Damon ("Tożsamość Bourne’a", "Buntownik z wyboru") oraz nominowani do Oscara Scarlett Johansson ("Wszystko gra", "Między słowami") i Thomas Haden Church ("Bezdroża", "Spider-Man 3").

INFO:


Hasło/Pass: niedzwiedzx

Kupiliśmy Zoo / We Bought A Zoo (2011) DVDRiP.XviD.AC3-REFiLL

Kupiliśmy Zoo / We Bought A Zoo (2011) DVDRiP.XviD.AC3-REFiLL

Uwaga! Linki nie zakodowane tylko dla zarejestrowanych użytkowników!

Nie masz konta? Zarejestruj się za darmo!
----------------
Links are not encoded only for registered users only! Plese login or register!

Kupiliśmy Zoo / We Bought A Zoo (2011) DVDRiP.XviD.AC3-REFiLL

Uwaga! Linki nie zakodowane tylko dla zarejestrowanych użytkowników!

Nie masz konta? Zarejestruj się za darmo!
----------------
Links are not encoded only for registered users only! Plese login or register!




Użytkownik VIP

niedzwiedzxVIP

#1 | Dodany: 17 Marzec 2012 00:42

Kupiliśmy Zoo / We Bought A Zoo (2011) DVDRiP.XviD.AC3-TRiNiTY



Format: AVI
Format/Info: Audio Video Interleave
File size: 1.55 GiB
Duration: 2h 3mn
Overall bit rate: 1 794 Kbps
Writing library: VirtualDub build 30091/release

Video
ID: 0
Format: MPEG-4 Visual
Format profile: Advanced Simple@L5
Format settings, BVOP: 2
Format settings, QPel: No
Format settings, GMC: No warppoints
Format settings, Matrix: Default (H.263)
Codec ID: XVID
Codec ID/Hint: XviD
Duration: 2h 3mn
Bit rate: 1 400 Kbps
Width: 624 pixels
Height: 336 pixels
Display aspect ratio: 1.857
Frame rate: 25.000 fps
Color space: YUV
Chroma subsampling: 4:2:0
Bit depth: 8 bits
Scan type: Progressive
Compression mode: Lossy
Bits/(Pixel*Frame): 0.267
Stream size: 1.21 GiB (78%)
Writing library: XviD 1.2.1 (UTC 2008-12-04)

Audio
ID: 1
Format: AC-3
Format/Info: Audio Coding 3
Mode extension: CM (complete main)
Codec ID: 2000
Duration: 2h 3mn
Bit rate mode: Constant
Bit rate: 384 Kbps
Channel(s): 6 channels
Channel positions: Front: L C R, Side: L R, LFE
Sampling rate: 48.0 KHz
Bit depth: 16 bits
Compression mode: Lossy
Stream size: 340 MiB (21%)
Alignment: Aligned on interleaves
Interleave, duration: 40 ms (1.00 video frame)
Interleave, preload duration: 512 ms


Hasło/Pass: niedzwiedzx


Uwaga! Linki nie zakodowane tylko dla zarejestrowanych użytkowników!

Nie masz konta? Zarejestruj się za darmo!
----------------
Links are not encoded only for registered users only! Plese login or register!


Uwaga! Linki nie zakodowane tylko dla zarejestrowanych użytkowników!

Nie masz konta? Zarejestruj się za darmo!
----------------
Links are not encoded only for registered users only! Plese login or register!
Jeśli chcesz rozśmieszy? Boga, opowiedz mu o twoich planach na przysz?oś?.
Użytkownik VIP

k1791Użytkownik

#2 | Dodany: 17 Marzec 2012 05:38

We Bought A Zoo 2011 DVDRiP XviD AC3-REFiLL

Uwaga! Linki nie zakodowane tylko dla zarejestrowanych użytkowników!

Nie masz konta? Zarejestruj się za darmo!
----------------
Links are not encoded only for registered users only! Plese login or register!
Użytkownik VIP

ghwaySuper Uploader

#3 | Dodany: 17 Marzec 2012 10:25

Kupiliśmy Zoo / We Bought a Zoo (2011) DVDRip.XviD-NeDiVx

Dane techniczne:
x 2 CD
Format : AVI at 1 589 Kbps
Length : 694 MiB for 1h 1mn 6s 250ms

Video #0 : MPEG-4 Visual at 1 131 Kbps
Aspect : 624 x 336 (1.857) at 23.976 fps

Audio #0 : AC-3 at 448 Kbps
Infos : 6 channels, 48.0 KHz


Download - 400 MB Parts:

Hellshare
Uwaga! Linki nie zakodowane tylko dla zarejestrowanych użytkowników!

Nie masz konta? Zarejestruj się za darmo!
----------------
Links are not encoded only for registered users only! Plese login or register!


Uploaded
Uwaga! Linki nie zakodowane tylko dla zarejestrowanych użytkowników!

Nie masz konta? Zarejestruj się za darmo!
----------------
Links are not encoded only for registered users only! Plese login or register!


Turbobit
Uwaga! Linki nie zakodowane tylko dla zarejestrowanych użytkowników!

Nie masz konta? Zarejestruj się za darmo!
----------------
Links are not encoded only for registered users only! Plese login or register!



Download - 1 link = 1 CD:

Hellshare
Uwaga! Linki nie zakodowane tylko dla zarejestrowanych użytkowników!

Nie masz konta? Zarejestruj się za darmo!
----------------
Links are not encoded only for registered users only! Plese login or register!


Turbobit
Uwaga! Linki nie zakodowane tylko dla zarejestrowanych użytkowników!

Nie masz konta? Zarejestruj się za darmo!
----------------
Links are not encoded only for registered users only! Plese login or register!
Użytkownik VIP

warrior92VIP

#4 | Dodany: 31 Marzec 2012 05:20

Kupiliśmy Zoo / We Bought a Zoo (2011)
PLSUBBED.DVDRip.XviD-BiDA | WTOPiONE NAPiSY PL [695 MB]


DANE TECHNiCZNE

NAZWA RELEASU: We.Bought.a.Zoo.2011.PLSUBBED.DVDRip.XviD-BiDA

ROZMiAR/SiZE:
AVI at 784 Kb/s
695 MB for 2h 3 min. 52s 50ms

ViDEO:
MPEG-4 Visual at 643 Kb/s
624 x 336 (1.857) at 23.976 fps

AUDiO:
MPEG Audio at 128 Kb/s
2 kanały, 48,0 KHz


OPiS UPLOADU

WiELKOśĆ UPLOADU: 695 MB
RODZAJ KOMPRESJi: .RAR
ZAWARTOśĆ UPLOADU: PLiK .AVi
WERSJA J?ZYKOWA: POLSKiE NAPiSY (WTOPiONE)
LiNKi ZAMiENNE: TAK
DANE NAPRAWCZE: 1%
BEZ HASŁA


ZDJ?CiA / SCREENS

http://www.pixhost.org/show/972/11771982_screenshot-00001.png

http://www.pixhost.org/show/972/11771983_screenshot-00002.png

http://www.pixhost.org/show/972/11771984_screenshot-00003.png

PRÓBKA FiLMU

http://www66.zippyshare.com/v/52863490/file.html


POBiERZ / DOWNLOAD

PARTY - 400 MB
BEZ HASŁA || 1% DANYCH NAPRAWCZYCH || MOŻNA POBiERAĆ NA PRZEMiAN

Uwaga! Linki nie zakodowane tylko dla zarejestrowanych użytkowników!

Nie masz konta? Zarejestruj się za darmo!
----------------
Links are not encoded only for registered users only! Plese login or register!



TYLKO 1 LiNK
BEZ HASŁA || 1% DANYCH NAPRAWCZYCH

Uwaga! Linki nie zakodowane tylko dla zarejestrowanych użytkowników!

Nie masz konta? Zarejestruj się za darmo!
----------------
Links are not encoded only for registered users only! Plese login or register!
Użytkownik VIP

B89VIP Uploader

#5 | Dodany: 1 Maj 2012 14:43

Kupiliśmy Zoo / We Bought a Zoo (2011) Lektor PL
PL.DVDRip.XviD-B89


TECH. DANE:
Release: We.Bought.a.Zoo.2011.PL.DVDRip.XviD-B89

Format            : AVI at 790 Kb/s
Length            : 700 MB for 2h 3 min. 52s 91ms

Video #0          : MPEG-4 Visual at 669 Kb/s
Aspect            : 624 x 336 (1.857) at 23.976 fps

Audio #0          : MPEG Audio at 112 Kb/s
Infos             : 2 kanały, 44,1 KHz

Source:
V: MPTDVD | A: DaNieL [thx!]


SAMPLE:
http://www64.zippyshare.com/v/59665424/file.html


DOWNLOAD:
Uwaga! Linki nie zakodowane tylko dla zarejestrowanych użytkowników!

Nie masz konta? Zarejestruj się za darmo!
----------------
Links are not encoded only for registered users only! Plese login or register!

Informacje

Jeżeli chcesz skomentować artykuł musisz być zarejestrowany na stronie.