EXSite.pl - Portal ze wszystkim Mamy tutaj wszystko

NIE MASZ JESZCZE KONTA? ZAREJESTRUJ SIĘ ZA DARMO!   
Przypomnij hasło X

Poulet aux prunes (2011) PLSUBBED.BDRip.XviD-markus / Napisy PL

Dodał: markus04 29 Marzec 2012 20:19


Poulet aux prunes (2011) PLSUBBED.BDRip.XviD-markus / Napisy PL


Poulet aux prunes (2011) PLSUBBED.BDRip.XviD-markus / Napisy PL


INFO:
czas trwania: 1 godz. 30 min.
gatunek: Dramat
premiera: 3 września 2011 (świat)
produkcja: Belgia, Francja, Niemcy
reżyseria: Vincent Paronnaud, Marjane Satrapi
scenariusz: Marjane Satrapi, Vincent Paronnaud

Nasser-Ali, utalentowany muzyk grający na tarze, tradycyjnym perskim instrumencie, spotyka Irane, dawną miłość. Kobieta jednak nie rozpoznaje mężczyzny. Po zniszczeniu ukochanego taru, Nasser-Ali rozpoczyna poszukiwania nowego. Nie mogąc znaleźć zastępczego instrumentu, postanawia umrzeć.



Poulet aux prunes (2011) PLSUBBED.BDRip.XviD-markus / Napisy PL

DANE TECHNICZNE:


General
Complete name : Poulet.Aux.Prunes.2011.PLSUBBED.BDRip.XviD-markus.avi
Format : AVI
Format/Info : Audio Video Interleave
File size : 570 MiB
Duration : 1h 31mn
Overall bit rate : 870 Kbps
Writing library : MPlayer

Video
ID : 0
Format : MPEG-4 Visual
Format profile : Advanced Simple@L5
Format settings, BVOP : 2
Format settings, QPel : No
Format settings, GMC : No warppoints
Format settings, Matrix : Default (H.263)
Codec ID : XVID
Codec ID/Hint : XviD
Duration : 1h 31mn
Bit rate : 698 Kbps
Width : 640 pixels
Height : 272 pixels
Display aspect ratio : 2.35:1
Frame rate : 23.976 fps
Color space : YUV
Chroma subsampling : 4:2:0
Bit depth : 8 bits
Scan type : Progressive
Compression mode : Lossy
Bits/(Pixel*Frame) : 0.167
Stream size : 458 MiB (80%)
Writing library : XviD 1.1.2 (UTC 2006-11-01)

Audio
ID : 1
Format : MPEG Audio
Format version : Version 1
Format profile : Layer 3
Mode : Joint stereo
Mode extension : MS Stereo
Codec ID : 55
Codec ID/Hint : MP3
Duration : 1h 31mn
Bit rate mode : Constant
Bit rate : 160 Kbps
Channel(s) : 2 channels
Sampling rate : 44.1 KHz
Compression mode : Lossy
Delay relative to video : 42ms
Stream size : 105 MiB (18%)
Alignment : Aligned on interleaves
Interleave, duration : 26 ms (0.63 video frame)
Interleave, preload duration : 809 ms
Writing library : LAME3.98.2


DOWNLOAD:

Uwaga! Linki nie zakodowane tylko dla zarejestrowanych użytkowników!

Nie masz konta? Zarejestruj się za darmo!
----------------
Links are not encoded only for registered users only! Plese login or register!


Pliki można pobierać Przemiennie!! :) Nie zapomnij podziękować!


Uwaga! Re-Upload możliwy w ciągu 24h od zgłoszenia mi niedziałających linków.

Użytkownik VIP

dzejk0pUżytkownik

#1 | Dodany: 29 Marzec 2012 20:57

Gratki Debiutu z własnym Releasem!
Użytkownik VIP

olsonenVIP

#2 | Dodany: 30 Marzec 2012 06:52

Poulet.Aux.Prunes.2011.PLSUBBED.BDRip.XviD

DANE TECHNICZNE:

Format : AVI
Format/Info : Audio Video Interleave
File size : 570 MiB
Duration : 1h 31mn
Overall bit rate : 870 Kbps
Writing library : MPlayer

Audio
ID : 1
Format : MPEG Audio
Format version : Version 1
Format profile : Layer 3
Mode : Joint stereo
Mode extension : MS Stereo
Codec ID : 55
Codec ID/Hint : MP3
Duration : 1h 31mn


DOWNLOAD:

HellShare
Uwaga! Linki nie zakodowane tylko dla zarejestrowanych użytkowników!

Nie masz konta? Zarejestruj się za darmo!
----------------
Links are not encoded only for registered users only! Plese login or register!

Turbobit
Uwaga! Linki nie zakodowane tylko dla zarejestrowanych użytkowników!

Nie masz konta? Zarejestruj się za darmo!
----------------
Links are not encoded only for registered users only! Plese login or register!
Użytkownik VIP

AnaruUżytkownik

#3 | Dodany: 30 Marzec 2012 10:19

ok
Użytkownik VIP

ayyakwUżytkownik

#4 | Dodany: 7 Sierpień 2012 20:30

Można prosić o jakieś działające linki?

Informacje

Jeżeli chcesz skomentować artykuł musisz być zarejestrowany na stronie.