EXSite.pl - Portal ze wszystkim Mamy tutaj wszystko

NIE MASZ JESZCZE KONTA? ZAREJESTRUJ SIĘ ZA DARMO!   
Przypomnij hasło X

11-11-11 (2011) PLSUBBED.DVDRIP.XVID-markus / Napisy PL

Dodał: markus04 30 Marzec 2012 12:15


11-11-11 (2011) PLSUBBED.DVDRIP.XVID-markus / Napisy PL


11-11-11 (2011) PLSUBBED.DVDRIP.XVID-markus / Napisy PL


INFO:
czas trwania: 1 godz. 30 min.
gatunek: Horror
premiera: 10 listopada 2011 (świat)
produkcja: Hiszpania, USA
reżyseria: Darren Lynn Bousman
scenariusz: Darren Lynn Bousman

Po tragicznej śmierci żony i dziecka, słynny ameryka?ski pisarz Joseph Crone (Timothy Gibbs), udaje się do Barcelony, by pogodzić się z bratem i umierającym ojcem. Niespodziewanie, jego życie przybiera zupełnie inny kierunek, gdy zaczyna doświadczać szeregu dziwnych wydarze?, mających związek z liczbą 11. Ciekawość zmieniająca się w obsesję, prowadzi Josepha do odkrycia przerażającej prawdy i ujawnienia apokaliptycznej daty 11-11-11...



11-11-11 (2011) PLSUBBED.DVDRIP.XVID-markus / Napisy PL


DANE TECHNICZNE:

General
Complete name : 111111.PLSUBBED.DVDRIP.XVID-markus.avi
Format : AVI
Format/Info : Audio Video Interleave
File size : 589 MiB
Duration : 1h 33mn
Overall bit rate : 886 Kbps
Writing library : MPlayer

Video
ID : 0
Format : MPEG-4 Visual
Format profile : Advanced Simple@L5
Format settings, BVOP : 2
Format settings, QPel : No
Format settings, GMC : No warppoints
Format settings, Matrix : Default (H.263)
Codec ID : XVID
Codec ID/Hint : XviD
Duration : 1h 33mn
Bit rate : 713 Kbps
Width : 640 pixels
Height : 272 pixels
Display aspect ratio : 2.35:1
Frame rate : 25.000 fps
Color space : YUV
Chroma subsampling : 4:2:0
Bit depth : 8 bits
Scan type : Progressive
Compression mode : Lossy
Bits/(Pixel*Frame) : 0.164
Stream size : 475 MiB (81%)
Writing library : XviD 1.1.2 (UTC 2006-11-01)

Audio
ID : 1
Format : MPEG Audio
Format version : Version 1
Format profile : Layer 3
Mode : Joint stereo
Codec ID : 55
Codec ID/Hint : MP3
Duration : 1h 32mn
Bit rate mode : Constant
Bit rate : 160 Kbps
Channel(s) : 2 channels
Sampling rate : 44.1 KHz
Compression mode : Lossy
Delay relative to video : 40ms
Stream size : 106 MiB (18%)
Alignment : Aligned on interleaves
Interleave, duration : 26 ms (0.65 video frame)
Interleave, preload duration : 809 ms


DOWNLOAD:

Uwaga! Linki nie zakodowane tylko dla zarejestrowanych użytkowników!

Nie masz konta? Zarejestruj się za darmo!
----------------
Links are not encoded only for registered users only! Plese login or register!


Pliki można pobierać Przemiennie!! :) Nie zapomnij podziękować!


Uwaga! Re-Upload możliwy w ciągu 24h od zgłoszenia mi niedziałających linków.

Użytkownik VIP

filmik71Użytkownik

#1 | Dodany: 30 Marzec 2012 12:51

help ma ktoś na turbobit??? please! a może polski lektor???

Informacje

Jeżeli chcesz skomentować artykuł musisz być zarejestrowany na stronie.