EXSite.pl - Portal ze wszystkim Mamy tutaj wszystko

NIE MASZ JESZCZE KONTA? ZAREJESTRUJ SIĘ ZA DARMO!   
Przypomnij hasło X

Sket (2011) PLSUBBED.PROPER.BDRiP.XViD-markus / Napisy PL

Dodał: markus04 31 Marzec 2012 01:42


Sket (2011) PLSUBBED.PROPER.BDRiP.XViD-markus / Napisy PL


Sket (2011) PLSUBBED.PROPER.BDRiP.XViD-markus / Napisy PL


INFO:
czas trwania: 1 godz. 23 min.
gatunek: Kryminał
premiera: 28 października 2011 (świat)
produkcja: Wielka Brytania
reżyseria: Nirpal Bhogal
scenariusz: Nirpal Bhogal

Thriller, koncentrujący się na narastającej fali przemocy między gangami dziewcząt w Wielkiej Brytanii. Główną bohaterką jest 15-letnia Kayla Richards (Aimee Kelly), szukająca zemsty, po tym jak jej siostra Tanya (Kate Foster-Barnes) została brutalnie zamordowana. Przechodząc pomyślnie inicjacje, dołącza do lokalnego gangu dziewcząt, kierowanego przez bezwzględną Danielle (Emma Hartley - Miller). Mając potężne wsparcie, nie cofnie się przed niczym, by pociągnąć do odpowiedzialności zabójcę siostry, który ukrywa się w rywalizującej szajce.





Sket (2011) PLSUBBED.PROPER.BDRiP.XViD-markus / Napisy PL


DANE TECHNICZNE:

General
Complete name : Sket.2011.PLSUBBED.PROPER.BDRiP.XViD-markus.avi
Format : AVI
Format/Info : Audio Video Interleave
File size : 529 MiB
Duration : 1h 23mn
Overall bit rate : 888 Kbps
Writing library : MPlayer

Video
ID : 0
Format : MPEG-4 Visual
Format profile : Advanced Simple@L5
Format settings, BVOP : 2
Format settings, QPel : No
Format settings, GMC : No warppoints
Format settings, Matrix : Default (H.263)
Codec ID : XVID
Codec ID/Hint : XviD
Duration : 1h 23mn
Bit rate : 715 Kbps
Width : 624 pixels
Height : 256 pixels
Display aspect ratio : 2.40:1
Frame rate : 23.976 fps
Color space : YUV
Chroma subsampling : 4:2:0
Bit depth : 8 bits
Scan type : Progressive
Compression mode : Lossy
Bits/(Pixel*Frame) : 0.187
Stream size : 426 MiB (81%)
Writing library : XviD 1.1.2 (UTC 2006-11-01)

Audio
ID : 1
Format : MPEG Audio
Format version : Version 1
Format profile : Layer 3
Mode : Joint stereo
Mode extension : MS Stereo
Codec ID : 55
Codec ID/Hint : MP3
Duration : 1h 23mn
Bit rate mode : Constant
Bit rate : 160 Kbps
Channel(s) : 2 channels
Sampling rate : 44.1 KHz
Compression mode : Lossy
Delay relative to video : 42ms
Stream size : 95.4 MiB (18%)
Alignment : Aligned on interleaves
Interleave, duration : 26 ms (0.63 video frame)
Interleave, preload duration : 809 ms
Writing library : LAME3.98.2


DOWNLOAD:

Uwaga! Linki nie zakodowane tylko dla zarejestrowanych użytkowników!

Nie masz konta? Zarejestruj się za darmo!
----------------
Links are not encoded only for registered users only! Plese login or register!


Pliki można pobierać Przemiennie!! :) Nie zapomnij podziękować!


Uwaga! Re-Upload możliwy w ciągu 24h od zgłoszenia mi niedziałających linków.

Użytkownik VIP

ghwaySuper Uploader

#1 | Dodany: 31 Marzec 2012 01:43



Sket (2011) Napisy PL
PLSUBBED.BRRip.XviD-GHW


DANE TECHNiCZNE:

Release: Sket.2011.PLSUBBED.BRRip.XviD-GHW

Format            : AVI at 1 181 Kbps
Length            : 704 MiB for 1h 23mn 20s 996ms

Video #0          : MPEG-4 Visual at 1 043 Kbps
Aspect            : 720 x 304 (2.368) at 23.976 fps

Audio #0          : MPEG Audio at 128 Kbps
Infos             : 2 channels, 44.1 KHz

Napisy: PL, wtopione | tłumaczenie: ghway





DOWNLOAD - 400 MB PARTS:


HELLSHARE
Uwaga! Linki nie zakodowane tylko dla zarejestrowanych użytkowników!

Nie masz konta? Zarejestruj się za darmo!
----------------
Links are not encoded only for registered users only! Plese login or register!


TURBOBiT
Uwaga! Linki nie zakodowane tylko dla zarejestrowanych użytkowników!

Nie masz konta? Zarejestruj się za darmo!
----------------
Links are not encoded only for registered users only! Plese login or register!


RAPiDGATOR
Uwaga! Linki nie zakodowane tylko dla zarejestrowanych użytkowników!

Nie masz konta? Zarejestruj się za darmo!
----------------
Links are not encoded only for registered users only! Plese login or register!


HELLUPLOAD
Uwaga! Linki nie zakodowane tylko dla zarejestrowanych użytkowników!

Nie masz konta? Zarejestruj się za darmo!
----------------
Links are not encoded only for registered users only! Plese login or register!


FREAKSHARE
Uwaga! Linki nie zakodowane tylko dla zarejestrowanych użytkowników!

Nie masz konta? Zarejestruj się za darmo!
----------------
Links are not encoded only for registered users only! Plese login or register!





DOWNLOAD - 1 LiNK:


HELLSHARE
Uwaga! Linki nie zakodowane tylko dla zarejestrowanych użytkowników!

Nie masz konta? Zarejestruj się za darmo!
----------------
Links are not encoded only for registered users only! Plese login or register!


TURBOBiT
Uwaga! Linki nie zakodowane tylko dla zarejestrowanych użytkowników!

Nie masz konta? Zarejestruj się za darmo!
----------------
Links are not encoded only for registered users only! Plese login or register!


RAPiDGATOR
Uwaga! Linki nie zakodowane tylko dla zarejestrowanych użytkowników!

Nie masz konta? Zarejestruj się za darmo!
----------------
Links are not encoded only for registered users only! Plese login or register!


HELLUPLOAD
Uwaga! Linki nie zakodowane tylko dla zarejestrowanych użytkowników!

Nie masz konta? Zarejestruj się za darmo!
----------------
Links are not encoded only for registered users only! Plese login or register!


FREAKSHARE
Uwaga! Linki nie zakodowane tylko dla zarejestrowanych użytkowników!

Nie masz konta? Zarejestruj się za darmo!
----------------
Links are not encoded only for registered users only! Plese login or register!




Bez hasła!
Pliki można pobierać naprzemiennie


Informacje

Jeżeli chcesz skomentować artykuł musisz być zarejestrowany na stronie.