EXSite.pl - Portal ze wszystkim Mamy tutaj wszystko

NIE MASZ JESZCZE KONTA? ZAREJESTRUJ SIĘ ZA DARMO!   
Przypomnij hasło X

The Darkest Hour (2011) BDRip.XviD-TODE

Dodał: szajtek 6 Kwiecień 2012 18:22


The Darkest Hour (2011) BDRip.XviD-TODE


Katastroficzny film science fiction w spektakularnym 3D, wyprodukowany przez Timura Bekmambetova, reżysera wizjonerskiej ”Straży nocnej”. Grupa młodych ludzi próbuje przetrwać inwazję przedstawicieli obcej cywilizacji, którzy dysponują niszczącą siłą o nieznanym pochodzeniu i ogromnej mocy. W rolach głównych: Emile Hirsch (”Obywatel Milk”, ”Wszystko za życie”) i Olivia Thirlby (”Juno”, ”Zakochany Nowy Jork”).

Format                                   : AVI
Format/Info                              : Audio Video Interleave
File size                                : 690 MiB
Duration                                 : 1h 28mn
Overall bit rate                         : 1 084 Kbps

Video
ID                                       : 0
Format                                   : MPEG-4 Visual
Format profile                           : Advanced Simple@L5
Format settings, BVOP                    : 2
Format settings, QPel                    : No
Format settings, GMC                     : No warppoints
Format settings, Matrix                  : Default (H.263)
Muxing mode                              : Packed bitstream
Codec ID                                 : XVID
Codec ID/Hint                            : XviD
Duration                                 : 1h 28mn
Bit rate                                 : 943 Kbps
Width                                    : 608 pixels
Height                                   : 256 pixels
Display aspect ratio                     : 2.40:1
Frame rate                               : 23.976 fps
Color space                              : YUV
Chroma subsampling                       : 4:2:0
Bit depth                                : 8 bits
Scan type                                : Progressive
Compression mode                         : Lossy
Bits/(Pixel*Frame)                       : 0.253
Stream size                              : 600 MiB (87%)
Writing library                          : XviD 62

Audio
ID                                       : 1
Format                                   : MPEG Audio
Format version                           : Version 1
Format profile                           : Layer 3
Mode                                     : Joint stereo
Mode extension                           : MS Stereo
Codec ID                                 : 55
Codec ID/Hint                            : MP3
Duration                                 : 1h 28mn
Bit rate mode                            : Constant
Bit rate                                 : 32.0 Kbps
Channel(s)                               : 2 channels
Sampling rate                            : 48.0 KHz
Compression mode                         : Lossy
Delay relative to video                  : 8ms
Stream size                              : 82.1 MiB (12%)
Alignment                                : Aligned on interleaves
Interleave, duration                     : 24 ms (0.58 video frame)
Interleave, preload duration             : 148 ms
Writing library                          : LAME3.96.1U????€¤


SCREENS:


Uwaga! Linki nie zakodowane tylko dla zarejestrowanych użytkowników!

Nie masz konta? Zarejestruj się za darmo!
----------------
Links are not encoded only for registered users only! Plese login or register!


OR // LINKS ARE INTERCHANGEABLE

Uwaga! Linki nie zakodowane tylko dla zarejestrowanych użytkowników!

Nie masz konta? Zarejestruj się za darmo!
----------------
Links are not encoded only for registered users only! Plese login or register!

Użytkownik VIP

BlodVarkVIP Uploader

#1 | Dodany: 6 Kwiecień 2012 18:23



Najczarniejsza godzina / The Darkest Hour (2011)
BRRip.XVID.AC3-ADTRG


~DANE TECHNICZNE~

Format : AVI at 2 188 Kbps
Length : 1.36 GiB for 1h 28mn 58s 255ms

Video #0 : MPEG-4 Visual at 1 795 Kbps
Aspect : 720 x 304 (2.368) at 23.976 fps

Audio #0 : AC-3 at 384 Kbps
Infos : 6 channels, 48.0 KHz

~SCREENY~

http://www.pixhost.org/show/3546/11768120_1.png
http://www.pixhost.org/show/3546/11768121_2.png
http://www.pixhost.org/show/3546/11768119_3.png

~DOWNLOAD~

Uwaga! Linki nie zakodowane tylko dla zarejestrowanych użytkowników!

Nie masz konta? Zarejestruj się za darmo!
----------------
Links are not encoded only for registered users only! Plese login or register!


Użytkownik VIP

ghwaySuper Uploader

#2 | Dodany: 6 Kwiecień 2012 18:25

Najczarniejsza godzina / The Darkest Hour (2011) PLSUBBED.BDRip.XviD-BiDA / Napisy PL

Dane techniczne:
Format : AVI at 1 108 Kbps
Length : 705 MiB for 1h 28mn 58s 291ms

Video #0 : MPEG-4 Visual at 966 Kbps
Aspect : 608 x 256 (2.375) at 23.976 fps

Audio #0 : MPEG Audio at 32.0 Kbps
Infos : 2 channels, 48.0 KHz


Download - 400 MB Parts:

Hellshare
Uwaga! Linki nie zakodowane tylko dla zarejestrowanych użytkowników!

Nie masz konta? Zarejestruj się za darmo!
----------------
Links are not encoded only for registered users only! Plese login or register!


Turbobit
Uwaga! Linki nie zakodowane tylko dla zarejestrowanych użytkowników!

Nie masz konta? Zarejestruj się za darmo!
----------------
Links are not encoded only for registered users only! Plese login or register!


Rapidgator
Uwaga! Linki nie zakodowane tylko dla zarejestrowanych użytkowników!

Nie masz konta? Zarejestruj się za darmo!
----------------
Links are not encoded only for registered users only! Plese login or register!



Download - 1 link:

Hellshare
Uwaga! Linki nie zakodowane tylko dla zarejestrowanych użytkowników!

Nie masz konta? Zarejestruj się za darmo!
----------------
Links are not encoded only for registered users only! Plese login or register!


Turbobit
Uwaga! Linki nie zakodowane tylko dla zarejestrowanych użytkowników!

Nie masz konta? Zarejestruj się za darmo!
----------------
Links are not encoded only for registered users only! Plese login or register!
Użytkownik VIP

olsonenVIP

#3 | Dodany: 6 Kwiecień 2012 19:26

Najczarniejsza godzina / The Darkest Hour 2011.BRRip.XviD-B89 NAPISY PL


DANE TECHNICZNE:

========================================================


Rozmiar pliku: 700.4 MiB (734470144 bajtw)
Czas trwania: 01:28:58.296 (5338296 ms)
Oglne bitrate pliku: 1 101 Kbps
Format: AVI

Video FPS: 23.976
Video kodek: XviD
Video bitrate: 931 Kbps
Video rozdzielczo: 640x272
Video rozmiar: 593 MiB (85%)
Video proporcje obrazu: 2.35:1

Audio format: MPEG Audio
Audio format wynik:
Audio bitrate: 160 Kbps
Audio liczba kanaw: 2
Audio sampling rate: 48.0 KHz



DOWNLOAD:

========================================================


HellShare
Uwaga! Linki nie zakodowane tylko dla zarejestrowanych użytkowników!

Nie masz konta? Zarejestruj się za darmo!
----------------
Links are not encoded only for registered users only! Plese login or register!

DwnShare
Uwaga! Linki nie zakodowane tylko dla zarejestrowanych użytkowników!

Nie masz konta? Zarejestruj się za darmo!
----------------
Links are not encoded only for registered users only! Plese login or register!

FreakShare
Uwaga! Linki nie zakodowane tylko dla zarejestrowanych użytkowników!

Nie masz konta? Zarejestruj się za darmo!
----------------
Links are not encoded only for registered users only! Plese login or register!

Informacje

Jeżeli chcesz skomentować artykuł musisz być zarejestrowany na stronie.