EXSite.pl - Portal ze wszystkim Mamy tutaj wszystko

NIE MASZ JESZCZE KONTA? ZAREJESTRUJ SIĘ ZA DARMO!   
Przypomnij hasło X

Afghan Luke (2011) DVDRip.XviD-KAZAN

Dodał: ghway 20 Kwiecień 2012 00:17



Afghan Luke (2011)

DVDRip.XviD-KAZAN



Afghan Luke (2011) DVDRip.XviD-KAZAN

Afghan Luke (2011) DVDRip.XviD-KAZAN


czas trwania: 1 godz. 40 min.
gatunek: Komedia
produkcja: Kanada
reżyseria: Mike Clattenburg
scenariusz: Douglas Bell, Patrick Graham


Kiedy redaktor naczelny odmawia opublikowania historii o okaleczonych snajperach w Afganistanie, dziennikarz Luke rzuca pracę i z pomocą lekkomyślnego Toma powraca do strefy wojny. Po przybyciu na miejsce, Afganistan okazuje się jeszcze bardziej niebezpiecznym miejscem niż wtedy, gdy Luke go opuszczał.


Dane techniczne:
Afghan Luke (2011) DVDRip XviD-KAZAN
Language(s): English
1hr 29mn | DVDRip | avi | 640 x 272 | XviD @ 960 Kbps | MP3 @ 128 Kbps | 701 MB



Afghan Luke (2011) DVDRip.XviD-KAZAN Afghan Luke (2011) DVDRip.XviD-KAZAN
Afghan Luke (2011) DVDRip.XviD-KAZAN


Afghan Luke (2011) DVDRip.XviD-KAZAN


Download - 400 MB Parts:



Hellshare
Uwaga! Linki nie zakodowane tylko dla zarejestrowanych użytkowników!

Nie masz konta? Zarejestruj się za darmo!
----------------
Links are not encoded only for registered users only! Plese login or register!


Turbobit
Uwaga! Linki nie zakodowane tylko dla zarejestrowanych użytkowników!

Nie masz konta? Zarejestruj się za darmo!
----------------
Links are not encoded only for registered users only! Plese login or register!


Rapidgator
Uwaga! Linki nie zakodowane tylko dla zarejestrowanych użytkowników!

Nie masz konta? Zarejestruj się za darmo!
----------------
Links are not encoded only for registered users only! Plese login or register!




Download - 1 link:



Hellshare
Uwaga! Linki nie zakodowane tylko dla zarejestrowanych użytkowników!

Nie masz konta? Zarejestruj się za darmo!
----------------
Links are not encoded only for registered users only! Plese login or register!


Turbobit
Uwaga! Linki nie zakodowane tylko dla zarejestrowanych użytkowników!

Nie masz konta? Zarejestruj się za darmo!
----------------
Links are not encoded only for registered users only! Plese login or register!


Rapidgator
Uwaga! Linki nie zakodowane tylko dla zarejestrowanych użytkowników!

Nie masz konta? Zarejestruj się za darmo!
----------------
Links are not encoded only for registered users only! Plese login or register!








Użytkownik VIP

ghwaySuper Uploader

#1 | Dodany: 20 Kwiecień 2012 00:17

nuta
Użytkownik VIP

artuniu44Użytkownik

#2 | Dodany: 20 Kwiecień 2012 08:22

thx ok
SAPER MYLI SIE TYLKO RAZ.CZLOWIEK KTORY NIE ROBI NIC NIE MYLI SIE NIGDY!
Użytkownik VIP

bogdan53Użytkownik

#3 | Dodany: 22 Kwiecień 2012 00:01

Afghan Luke (2011) DVDRiP.XviD-RMVB-B53

  Format : RealMedia
      File size : 293 MiB
      Duration : 1h 29mn
      Overall bit rate : 446 Kbps
   Video #1
      ID : 1
      Format : RealVideo 4
      Codec ID : RV40
      Codec ID/Info : Based on AVC (H.264), Real Player 9
      Duration : 1h 29mn
      Bit rate : 382 Kbps
      Width : 640 pixels
      Height : 272 pixels
      Display aspect ratio : 2.35:1
      Frame rate : 25.000 fps
      Resolution : 12 bits
      Bits/(Pixel*Frame) : 0.088
      Stream size : 245 MiB (83%)
   Audio #0
      ID : 0
      Format : Cooker
      Codec ID : cook
      Codec ID/Info : Based on G.722.1, Real Player 6
      Duration : 1h 29mn
      Bit rate : 64.1 Kbps
      Channel(s) : 2 channels
      Sampling rate : 44.1 KHz
      Resolution : 16 bits
      Stream size : 41.1 MiB (14%)


http://download.hellshare.cz/afghan-luke-2011-dvdrip-xvid-b53-rmvb/6828451/
Homo homini lupus est.

Informacje

Jeżeli chcesz skomentować artykuł musisz być zarejestrowany na stronie.