EXSite.pl - Portal ze wszystkim Mamy tutaj wszystko

NIE MASZ JESZCZE KONTA? ZAREJESTRUJ SIĘ ZA DARMO!   
Przypomnij hasło X

Fighter / The Fighter (2010) 720p.BRRip.XviD.AC3-Voltage

Dodał: ampatinis 27 Kwiecień 2012 16:38


Fighter / The Fighter (2010) 720p.BRRip.XviD.AC3-Voltage

Fighter / The Fighter (2010) 720p.BRRip.XviD.AC3-Voltage

Fighter / The Fighter (2010) 720p.BRRip.XviD.AC3-Voltage
##OPIS##

produkcja: USA
gatunek: Biograficzny, Dramat, Sportowy
reżyseria: David O. Russell
scenariusz: Scott Silver, Paul Tamasy
premiera: 4 marca 2011 (Polska) 10 grudnia 2010 (świat)
czas trwania: 114 min.

Micky Ward (Mark Wahlberg) jest bokserem wagi półśredniej, żyjącym z zamiatania ulic. Przegrał kilka ostatnich walk, ma problemy z byłą żoną, z matką-despotką (Melissa Leo), z gromadą rozhisteryzowanych sióstr, a przede wszystkim z Dicky’m (Christian Bale) - bratem i trenerem w jednej osobie. Kiedyś on także był utalentowanym bokserem, ma na swoim koncie spektakularny sukces, ale przez uzależnienie od narkotyków stacza się na samo dno. Micky ma dosyć porażek na każdym polu. Spotkanie z...



Source........::: The.Fighter.2010.1080p.BluRay.x264
Encoder.......::: Dreamer
Notes.........::: QPE - Quality Preserved Encodes. is a new technique/script to increase compression
while still maintaining sharpness/colour and quality . please leave your feedback .


-----------------------------------------------------------------------------------------------------------
Video
-----------------------------------------------------------------------------------------------------------


General
Complete name : The.Fighter.2010.720p.BRRip.XviD.AC3-Voltage.avi
Format : AVI
Format/Info : Audio Video Interleave
File size : 3.20 GiB
Duration : 1h 55mn
Overall bit rate : 3 956 Kbps

Video
ID : 0
Format : MPEG-4 Visual
Format profile : Advanced Simple@L5
Format settings, BVOP : 2
Format settings, QPel : No
Format settings, GMC : No warppoints
Format settings, Matrix : Default (H.263)
Codec ID : XVID
Codec ID/Hint : XviD
Duration : 1h 55mn
Bit rate : 3 498 Kbps
Width : 1 280 pixels
Height : 528 pixels
Display aspect ratio : 2.35:1
Frame rate : 23.976 fps
Color space : YUV
Chroma subsampling : 4:2:0
Bit depth : 8 bits
Scan type : Progressive
Compression mode : Lossy
Bits/(Pixel*Frame) : 0.216
Stream size : 2.83 GiB (88%)
Writing library : XviD 1.2.1 (UTC 2008-12-04)



-----------------------------------------------------------------------------------------------------------

Audio
-----------------------------------------------------------------------------------------------------------

Audio
ID : 1
Format : AC-3
Format/Info : Audio Coding 3
Mode extension : CM (complete main)
Format settings, Endianness : Big
Codec ID : 2000
Duration : 1h 55mn
Bit rate mode : Constant
Bit rate : 448 Kbps
Channel(s) : 6 channels
Channel positions : Front: L C R, Side: L R, LFE
Sampling rate : 48.0 KHz
Bit depth : 16 bits
Compression mode : Lossy
Stream size : 371 MiB (11%)
Alignment : Split accross interleaves
Interleave, duration : 42 ms (1.00 video frame)
Interleave, preload duration : 500 ms


Fighter / The Fighter (2010) 720p.BRRip.XviD.AC3-Voltage

Fighter / The Fighter (2010) 720p.BRRip.XviD.AC3-Voltage Fighter / The Fighter (2010) 720p.BRRip.XviD.AC3-Voltage

Fighter / The Fighter (2010) 720p.BRRip.XviD.AC3-Voltage
Uwaga! Linki nie zakodowane tylko dla zarejestrowanych użytkowników!

Nie masz konta? Zarejestruj się za darmo!
----------------
Links are not encoded only for registered users only! Plese login or register!



Użytkownik VIP

nakacu22VIP

#1 | Dodany: 27 Kwiecień 2012 16:54

ok
Powracam ;)
Użytkownik VIP

darkk`Użytkownik

#2 | Dodany: 27 Kwiecień 2012 17:18

Warrior (2011) PL.BRRip.XviD-B89 / Lektor PL

DANE TECHNICZNE:
Format : AVI at 731 Kbps
Length : 702 MiB for 2h 14mn 10s 440ms
Video : MPEG-4 Visual at 610 Kbps
Aspect : 640 x 272 (2.353) at 25.000 fps
Audio : MPEG Audio at 112 Kbps
Infos : 2 channels, 44.1 KHz


OPIS UPLOADU:
Wielkość Uploadu: 708 MB
Rodzaj Kompresji: rar
Zawartość Uploadu: Plik .avi
Wersja Językowa: Lektor PL
Dane Naprawcze: 1%
Hasło : brak hasła


SCREENY:


DOWNLOAD

Uwaga! Linki nie zakodowane tylko dla zarejestrowanych użytkowników!

Nie masz konta? Zarejestruj się za darmo!
----------------
Links are not encoded only for registered users only! Plese login or register!

Informacje

Jeżeli chcesz skomentować artykuł musisz być zarejestrowany na stronie.