EXSite.pl - Portal ze wszystkim Mamy tutaj wszystko

NIE MASZ JESZCZE KONTA? ZAREJESTRUJ SIĘ ZA DARMO!   
Przypomnij hasło X

Avatar (2009) Extended.720p.BRRip.QPE.XviD.AC3-Voltage

Dodał: ampatinis 10 Maj 2012 18:18


Avatar (2009) Extended.720p.BRRip.QPE.XviD.AC3-Voltage

Avatar (2009) Extended.720p.BRRip.QPE.XviD.AC3-Voltage

Avatar (2009) Extended.720p.BRRip.QPE.XviD.AC3-Voltage
Długo oczekiwany film Jamesa Camerona zrealizowany z wielkim rozmachem porównywalnym do Titanica. Szacowany budżet na poziomie 237 milionów dolarów daje mu trzecie miejsce pod tym względem w historii kina. Avatar został wykonany w dwóch technikach: tradycyjnej 2D i zupełnie nowej technice 3D. Zdjęcia do filmu zostały wykonane w 2007 roku, natomiast na postprodukcję przeznaczono dwa lata.

Avatar opowiada historię sparaliżowanego byłego komandosa, który dostaje szansę odzyskania zdrowego ciała. Musi jednak wziąć udział w specjalnym programie militarnym o nazwie Avatar. W rolach głównych między innymi Sam Worthington, Sigourney Weaver, Michelle Rodriguez.

Media na całym świecie ogłaszają, że Avatar będzie przełomem kina na miarę wprowadzenia w latach 20. dźwięku. Sam Cameron uważa, że będzie to film lepszy od samego Titanica.

produkcja: USA
gatunek: Sci-Fi
reżyseria: James Cameron
scenariusz: James Cameron
zdjęcia: Mauro Fiore
muzyka: James Horner
obsada: Sam Worthington, Sigourney Weaver, Giovanni Ribisi i inni


Source........::: Avatar.2009.Extended.1080p.BluRay.DTS.x264
Encoder.......::: Dreamer
Notes.........::: QPE - Quality Preserved Encodes. is a new technique/script to increase compression
while still maintaining sharpness/colour and quality . please leave your feedback

Video
-----------------------------------------------------------------------------------------------------------


General
Complete name : Avatar.2009.Extended.720p.BRRip.QPE.XviD.AC3-Voltage.avi
Format : AVI
Format/Info : Audio Video Interleave
File size : 4.67 GiB
Duration : 2h 58mn
Overall bit rate : 3 752 Kbps

Video
ID : 0
Format : MPEG-4 Visual
Format profile : Advanced Simple@L5
Format settings, BVOP : 2
Format settings, QPel : No
Format settings, GMC : No warppoints
Format settings, Matrix : Default (H.263)
Codec ID : XVID
Codec ID/Hint : XviD
Duration : 2h 58mn
Bit rate : 3 295 Kbps
Width : 1 280 pixels
Height : 720 pixels
Display aspect ratio : 16:9
Frame rate : 23.976 fps
Color space : YUV
Chroma subsampling : 4:2:0
Bit depth : 8 bits
Scan type : Progressive
Compression mode : Lossy
Bits/(Pixel*Frame) : 0.149
Stream size : 4.10 GiB (88%)
Writing library : XviD 1.2.1 (UTC 2008-12-04)



-----------------------------------------------------------------------------------------------------------

Audio
-----------------------------------------------------------------------------------------------------------

Audio
ID : 1
Format : AC-3
Format/Info : Audio Coding 3
Mode extension : CM (complete main)
Format settings, Endianness : Big
Codec ID : 2000
Duration : 2h 58mn
Bit rate mode : Constant
Bit rate : 448 Kbps
Channel(s) : 6 channels
Channel positions : Front: L C R, Side: L R, LFE
Sampling rate : 48.0 KHz
Bit depth : 16 bits
Compression mode : Lossy
Stream size : 571 MiB (12%)
Alignment : Split accross interleaves
Interleave, duration : 42 ms (1.00 video frame)
Interleave, preload duration : 500 ms






Avatar (2009) Extended.720p.BRRip.QPE.XviD.AC3-Voltage

Avatar (2009) Extended.720p.BRRip.QPE.XviD.AC3-Voltage Avatar (2009) Extended.720p.BRRip.QPE.XviD.AC3-Voltage

Avatar (2009) Extended.720p.BRRip.QPE.XviD.AC3-Voltage
Uwaga! Linki nie zakodowane tylko dla zarejestrowanych użytkowników!

Nie masz konta? Zarejestruj się za darmo!
----------------
Links are not encoded only for registered users only! Plese login or register!



Użytkownik VIP

luknanVIP

#1 | Dodany: 10 Maj 2012 20:33

mógłbym prosić z lektorem?

Informacje

Jeżeli chcesz skomentować artykuł musisz być zarejestrowany na stronie.