EXSite.pl - Portal ze wszystkim Mamy tutaj wszystko

NIE MASZ JESZCZE KONTA? ZAREJESTRUJ SIĘ ZA DARMO!   
Przypomnij hasło X

Grzeszna duszyczka / Teen Spirit (2011) DVDRIP.Xvid-BHRG

Dodał: BrettHopper 28 Maj 2012 15:31


Grzeszna duszyczka / Teen Spirit (2011) DVDRIP.Xvid-BHRG

Grzeszna duszyczka / Teen Spirit (2011) DVDRIP.Xvid-BHRG


Grzeszna duszyczka / Teen Spirit (2011) DVDRIP.Xvid-BHRG
PRODUKCJA: USA
GATUNEK: Dramat
CZAS TRWANIA: 81 minut
DATA PREMIERY: 7 sierpnia 2011 (świat)
REŻYSERIA: Gil Junger

Amber jest popularną nastolatką. Wysoką pozycję w szkolnej hierarchii wykorzystuje to znęcania się nad koleżankami. Pewnego dnia za sprawą porażenia przed prąd umiera, jednak nie zostaje wpuszczona do Nieba. Aby do tego doszło, musi powrócić na ziemię i pomóc najmniej popularnej dziewczynie w szkole zostać Królową Balu podczas studniówki.



SCREENY:
Grzeszna duszyczka / Teen Spirit (2011) DVDRIP.Xvid-BHRG
Grzeszna duszyczka / Teen Spirit (2011) DVDRIP.Xvid-BHRG
Grzeszna duszyczka / Teen Spirit (2011) DVDRIP.Xvid-BHRG



DANE TECHNICZNE:
File size : 703 MiB
Duration : 1h 21mn
Overall bit rate : 1 203 Kbps

Video
ID : 0
Format : MPEG-4 Visual
Format profile : Advanced Simple@L5
Format settings, BVOP : 2
Format settings, QPel : No
Format settings, GMC : No warppoints
Format settings, Matrix : Default (H.263)
Codec ID : XVID
Codec ID/Hint : XviD
Duration : 1h 21mn
Bit rate : 1 069 Kbps
Width : 608 pixels
Height : 336 pixels
Display aspect ratio : 16:9
Frame rate : 23.976 fps
Color space : YUV
Chroma subsampling : 4:2:0
Bit depth : 8 bits
Scan type : Progressive
Compression mode : Lossy
Bits/(Pixel*Frame) : 0.218
Stream size : 625 MiB (89%)
Writing library : XviD 1.2.1 (UTC 2008-12-04)

Audio
ID : 1
Format : MPEG Audio
Format version : Version 1
Format profile : Layer 3
Mode : Joint stereo
Mode extension : MS Stereo
Codec ID : 55
Codec ID/Hint : MP3
Duration : 1h 21mn
Bit rate mode : Constant
Bit rate : 128 Kbps
Channel(s) : 2 channels
Sampling rate : 48.0 KHz
Compression mode : Lossy
Stream size : 74.8 MiB (11%)
Alignment : Aligned on interleaves
Interleave, duration : 167 ms (4.00 video frames)
Interleave, preload duration : 216 ms
Title : VTS_02_1 T80 3_2ch 448Kbps DELAY 0ms_new
Writing library : LAME3.99r
Encoding settings : -m j -V 4 -q 2 -lowpass 17 -b 128




DOWNLOAD:
Uwaga! Linki nie zakodowane tylko dla zarejestrowanych użytkowników!

Nie masz konta? Zarejestruj się za darmo!
----------------
Links are not encoded only for registered users only! Plese login or register!

Uwaga! Linki nie zakodowane tylko dla zarejestrowanych użytkowników!

Nie masz konta? Zarejestruj się za darmo!
----------------
Links are not encoded only for registered users only! Plese login or register!

Uwaga! Linki nie zakodowane tylko dla zarejestrowanych użytkowników!

Nie masz konta? Zarejestruj się za darmo!
----------------
Links are not encoded only for registered users only! Plese login or register!

Uwaga! Linki nie zakodowane tylko dla zarejestrowanych użytkowników!

Nie masz konta? Zarejestruj się za darmo!
----------------
Links are not encoded only for registered users only! Plese login or register!

Użytkownik VIP

Noise4UPVIP

#1 | Dodany: 28 Maj 2012 16:27

thx
D
Użytkownik VIP

tomeixUżytkownik

#2 | Dodany: 28 Maj 2012 17:39

zapoda ktoś na turbobita?
Użytkownik VIP

ghwaySuper Uploader

#3 | Dodany: 28 Maj 2012 17:53



Grzeszna duszyczka / Teen Spirit (2011)
DVDRip.XviD-iGNiTiON


DANE TECHNiCZNE:

Format            : AVI at 1.202 Kb/s
Length            : 702 MB for 1h 21 min. 41s 856ms

Video #0          : MPEG-4 Visual at 1.061 Kb/s
Aspect            : 624 x 352 (1.773) at 23.976 fps

Audio #0          : MPEG Audio at 129 Kb/s
Infos             : 2 kanay, 48,0 KHz





DOWNLOAD - 400 MB PARTS:


HELLSHARE
Uwaga! Linki nie zakodowane tylko dla zarejestrowanych użytkowników!

Nie masz konta? Zarejestruj się za darmo!
----------------
Links are not encoded only for registered users only! Plese login or register!


TURBOBiT
Uwaga! Linki nie zakodowane tylko dla zarejestrowanych użytkowników!

Nie masz konta? Zarejestruj się za darmo!
----------------
Links are not encoded only for registered users only! Plese login or register!


FREAKSHARE
Uwaga! Linki nie zakodowane tylko dla zarejestrowanych użytkowników!

Nie masz konta? Zarejestruj się za darmo!
----------------
Links are not encoded only for registered users only! Plese login or register!





DOWNLOAD - 1 LiNK:


HELLSHARE
Uwaga! Linki nie zakodowane tylko dla zarejestrowanych użytkowników!

Nie masz konta? Zarejestruj się za darmo!
----------------
Links are not encoded only for registered users only! Plese login or register!


TURBOBiT
Uwaga! Linki nie zakodowane tylko dla zarejestrowanych użytkowników!

Nie masz konta? Zarejestruj się za darmo!
----------------
Links are not encoded only for registered users only! Plese login or register!


FREAKSHARE
Uwaga! Linki nie zakodowane tylko dla zarejestrowanych użytkowników!

Nie masz konta? Zarejestruj się za darmo!
----------------
Links are not encoded only for registered users only! Plese login or register!




Bez hasła!
Pliki można pobierać naprzemiennie


Informacje

Jeżeli chcesz skomentować artykuł musisz być zarejestrowany na stronie.