EXSite.pl - Portal ze wszystkim Mamy tutaj wszystko

NIE MASZ JESZCZE KONTA? ZAREJESTRUJ SIĘ ZA DARMO!   
Przypomnij hasło X

Inseparable (2012) HDRip.XviD-Feel-Free

Dodał: ghway 4 Czerwiec 2012 21:53



Inseparable (2012)
HDRip.XviD-Feel-Free



Inseparable (2012) HDRip.XviD-Feel-Free

Inseparable (2012) HDRip.XviD-Feel-Free


czas trwania: 1 godz. 36 min.
gatunek: Dramat, Fantasy, Komedia, Thriller
produkcja: Chiny
reżyseria: Dayyan Eng
scenariusz: Dayyan Eng


Młody człowiek z problemami w domu i pracy zaprzyjaźnia się ze swoim dziwnym sąsiadem.



DANE TECHNiCZNE:

Format            : AVI at 1 369 Kbps
Length            : 950 MiB for 1h 37mn 0s 448ms

Video #0          : MPEG-4 Visual at 1 135 Kbps
Aspect            : 640 x 272 (2.353) at 25.000 fps

Audio #0          : AC-3 at 224 Kbps
Infos             : 2 channels, 48.0 KHz

Language: English | Mandarin
Subtitles: Chinese



Inseparable (2012) HDRip.XviD-Feel-Free Inseparable (2012) HDRip.XviD-Feel-Free
Inseparable (2012) HDRip.XviD-Feel-Free


Inseparable (2012) HDRip.XviD-Feel-Free


DOWNLOAD - 500 MB PARTS:



HELLSHARE
Uwaga! Linki nie zakodowane tylko dla zarejestrowanych użytkowników!

Nie masz konta? Zarejestruj się za darmo!
----------------
Links are not encoded only for registered users only! Plese login or register!


TURBOBiT
Uwaga! Linki nie zakodowane tylko dla zarejestrowanych użytkowników!

Nie masz konta? Zarejestruj się za darmo!
----------------
Links are not encoded only for registered users only! Plese login or register!


RAPiDGATOR
Uwaga! Linki nie zakodowane tylko dla zarejestrowanych użytkowników!

Nie masz konta? Zarejestruj się za darmo!
----------------
Links are not encoded only for registered users only! Plese login or register!




DOWNLOAD - 1 LiNK:



HELLSHARE
Uwaga! Linki nie zakodowane tylko dla zarejestrowanych użytkowników!

Nie masz konta? Zarejestruj się za darmo!
----------------
Links are not encoded only for registered users only! Plese login or register!


TURBOBiT
Uwaga! Linki nie zakodowane tylko dla zarejestrowanych użytkowników!

Nie masz konta? Zarejestruj się za darmo!
----------------
Links are not encoded only for registered users only! Plese login or register!


RAPiDGATOR
Uwaga! Linki nie zakodowane tylko dla zarejestrowanych użytkowników!

Nie masz konta? Zarejestruj się za darmo!
----------------
Links are not encoded only for registered users only! Plese login or register!






Bez hasła!
Pliki można pobierać naprzemiennie




Zobacz inne moje newsy na EXSite.pl





Użytkownik VIP

ghwaySuper Uploader

#1 | Dodany: 4 Czerwiec 2012 21:53

brawo
Użytkownik VIP

ClesedynaUżytkownik

#2 | Dodany: 5 Czerwiec 2012 09:40

Inseparable 2012 HDRip XviD Feel-Free

Format : AVI
Format/Info : Audio Video Interleave
File size : 950 MiB
Duration : 1h 37mn
Overall bit rate : 1 369 Kbps

Video

ID : 0
Format : MPEG-4 Visual
Format profile : Advanced Simple@L5
Format settings, BVOP : 1
Format settings, QPel : No
Format settings, GMC : No warppoints
Format settings, Matrix : Default (H.263)
Codec ID : XVID
Codec ID/Hint : XviD
Duration : 1h 37mn
Bit rate : 1 135 Kbps
Width : 640 pixels
Height : 272 pixels
Display aspect ratio : 2.35:1
Frame rate : 25.000 fps
Color space : YUV
Chroma subsampling : 4:2:0
Bit depth : 8 bits
Scan type : Progressive
Compression mode : Lossy
Bits/(Pixel*Frame) : 0.261
Stream size : 787 MiB (83%)
Writing library : XviD 1.2.1 (UTC 2008-12-04)

Audio

ID : 1
Format : AC-3
Format/Info : Audio Coding 3
Mode extension : CM (complete main)
Format settings, Endianness : Big
Codec ID : 2000
Duration : 1h 37mn
Bit rate mode : Constant
Bit rate : 224 Kbps
Channel(s) : 2 channels
Channel positions : Front: L R
Sampling rate : 48.0 KHz
Bit depth : 16 bits
Compression mode : Lossy
Stream size : 155 MiB (16%)
Alignment : Aligned on interleaves
Interleave, duration : 40 ms (1.00 video frame)
Interleave, preload duration : 512 ms

http://www.fastshare.cz/1498158/inseparable.2012.hdrip.xvid.feel-free.rar


lub

http://rapidgator.net/file/15418689/Inseparable.2012.HDRip.XviD.Feel-Free.rar.html


lub

http://www.pigsonic.com/uos5u81d0xnr.html


lub

http://download.hellshare.pl/inseparable-2012-hdrip-xvid-feel-free-rar/7619325/
Użytkownik VIP

matiss947Użytkownik

#3 | Dodany: 16 Czerwiec 2012 18:56

Inseparable (2012) HDRip XviD-4PlayHD

INFO:
Genre: Comedy | Drama | Thriller
IMDB Rating: 5.8/10 from 100 users
Directed by: Dayyan Eng
Starring: Kevin Spacey, Daniel Wu and Beibi Gong

Release Name: Inseparable.2012.HDRip.XviD-4PlayHD
Size: 700 MB
Video: AVI | 640 x 272 | 1006 kbps
Audio: English and Mandarin | MP3 | 128 kbps
Runtime: 1hour 37minutes
Subtitles: HC Chinese


TURBOBIT
http://turbobit.net/lmh5c30jy6bs/Inseparable.2012.HDRip.XviD-4PlayHD.avi.html
Użytkownik VIP

valFannUżytkownik

#4 | Dodany: 6 Luty 2013 18:32

Uwaga! Linki nie zakodowane tylko dla zarejestrowanych użytkowników!

Nie masz konta? Zarejestruj się za darmo!
----------------
Links are not encoded only for registered users only! Plese login or register!

Informacje

Jeżeli chcesz skomentować artykuł musisz być zarejestrowany na stronie.