EXSite.pl - Portal ze wszystkim Mamy tutaj wszystko

NIE MASZ JESZCZE KONTA? ZAREJESTRUJ SIĘ ZA DARMO!   
Przypomnij hasło X

A Więc Wojna / This Means War (2012) PL.AC3.720p.BRRip.XviD-evil | Lektor PL

Dodał: kuros90 27 Czerwiec 2012 10:34


A Więc Wojna / This Means War (2012) PL.AC3.720p.BRRip.XviD-evil | Lektor PL

A Więc Wojna / This Means War (2012) PL.AC3.720p.BRRip.XviD-evil | Lektor PL

OPIS
Dwaj tajni agenci zakochują się w tej samej kobiecie i rywalizując o jej względy wypowiadają sobie wojnę na śmierć i życie, korzystając z doświadcze?, które zdobyli w ciągu wielu lat wykonywania skrajnie niebezpiecznych zada?.

INFORMACJE
TYTUŁ FILMU: A Więc Wojna / This Means War
PRODUKCJA: USA
GATUNEK: Akcja, Komedia romantyczna
CZAS TRWANIA: 105 min.
DATA PREMIERY: 24.02.2012 - Polska, 17.02.2012 - świat
REŻYSERIA: McG
SCENARIUSZ: Timothy Dowling, Simon Kinberg
OBSADA: Reese Witherspoon, Chris Pine, Tom Hardy, Til Schweiger

DANE TECHNICZNE
NAZWA RELEASU: A Więc Wojna / This Means War (2012) PL.AC3.720p.BRRip.XviD-evil | Lektor PL
PARAMETRY: General
Complete name : This.Means.War.2012.PL.AC3.720p.BRRip.XviD-evil.avi
Format : AVI
Format/Info : Audio Video Interleave
Format profile : OpenDML
File size : 3.24 GiB
Duration : 1h 44mn
Overall bit rate : 4 459 Kbps
Writing application : VirtualDubMod 1.5.10.2 (build 2540/release)
Writing library : VirtualDubMod build 2540/release

Video
ID : 0
Format : MPEG-4 Visual
Format profile : Advanced Simple@L5
Format settings, BVOP : 2
Format settings, QPel : Yes
Format settings, GMC : No warppoints
Format settings, Matrix : Default (H.263)
Codec ID : XVID
Codec ID/Hint : XviD
Duration : 1h 44mn
Bit rate : 4 002 Kbps
Width : 1 280 pixels
Height : 534 pixels
Display aspect ratio : 2.40:1
Frame rate : 23.976 fps
Color space : YUV
Chroma subsampling : 4:2:0
Bit depth : 8 bits
Scan type : Progressive
Compression mode : Lossy
Bits/(Pixel*Frame) : 0.244
Stream size : 2.91 GiB (90%)
Writing library : XviD 1.2.1 (UTC 2008-12-04)

Audio
ID : 1
Format : AC-3
Format/Info : Audio Coding 3
Mode extension : CM (complete main)
Codec ID : 2000
Duration : 1h 44mn
Bit rate mode : Constant
Bit rate : 448 Kbps
Channel(s) : 6 channels
Channel positions : Front: L C R, Side: L R, LFE
Sampling rate : 48.0 KHz
Bit depth : 16 bits
Compression mode : Lossy
Stream size : 333 MiB (10%)
Alignment : Split accross interleaves
Interleave, duration : 42 ms (1.00 video frame)
Interleave, preload duration : 500 ms
DODATKOWE INFO: Lektor PL (normalny a nie taki drewniany jak poprzednio), dźwięk 5.1

SCREENY
A Więc Wojna / This Means War (2012) PL.AC3.720p.BRRip.XviD-evil | Lektor PL
A Więc Wojna / This Means War (2012) PL.AC3.720p.BRRip.XviD-evil | Lektor PL
A Więc Wojna / This Means War (2012) PL.AC3.720p.BRRip.XviD-evil | Lektor PL

Party po 400 MB lub film niespakowany
Można pobierać przemiennie
Na wszystkich serwerach ten sam film(release)
Dane Naprawcze 5%
Bez hasła
Pojedyncze pakowanie
Archiwa zawierają sam film i nic więcej


DOWNLOAD
Uwaga! Linki nie zakodowane tylko dla zarejestrowanych użytkowników!

Nie masz konta? Zarejestruj się za darmo!
----------------
Links are not encoded only for registered users only! Plese login or register!

Użytkownik VIP

bodzio9Uploader

#1 | Dodany: 27 Czerwiec 2012 10:56

A Więc Wojna / This Means War (2012) PL.AC3.720p.BRRip.XviD-evil | Lektor PL

Uwaga! Linki nie zakodowane tylko dla zarejestrowanych użytkowników!

Nie masz konta? Zarejestruj się za darmo!
----------------
Links are not encoded only for registered users only! Plese login or register!

Użytkownik VIP

nakacu22VIP

#2 | Dodany: 27 Czerwiec 2012 12:23

A więc wojna / This Means War (2012)


A więc wojna / This Means War (2012) PL.V2.UNRATED.BRRip.XviD-BiDA | Lektor PL


...::: Dane Techniczne :::..


Release : PL.V2.UNRATED.BRRip.XviD-BiDA

Format : AVI at 947 Kb/s
Length : 705 MB for 1h 44 min. 0s 192ms

Video #0 : MPEG-4 Visual at 806 Kb/s
Aspect : 720 x 304 (2.368) at 23.976 fps

Audio #0 : MPEG Audio at 128 Kb/s
Infos : 2 kanały, 48,0 KHz

źródło tłumaczenia: polski lektor profesjonalny



Plik jest zabezpieczony hasłem
Archiwum rar. // pakowane win rar.
Nazwa celowo zmieniona // dzięki temu dłuższa żywotność linków.
Brak błędów crc. // archiwum testowane przed wysłaniem na filehosty.



TYLKO 1 LINK DO FILMU


Uwaga! Linki nie zakodowane tylko dla zarejestrowanych użytkowników!

Nie masz konta? Zarejestruj się za darmo!
----------------
Links are not encoded only for registered users only! Plese login or register!


Uwaga! Linki nie zakodowane tylko dla zarejestrowanych użytkowników!

Nie masz konta? Zarejestruj się za darmo!
----------------
Links are not encoded only for registered users only! Plese login or register!


Uwaga! Linki nie zakodowane tylko dla zarejestrowanych użytkowników!

Nie masz konta? Zarejestruj się za darmo!
----------------
Links are not encoded only for registered users only! Plese login or register!


Hasło archiwum: nakacu22
Powracam ;)

Informacje

Jeżeli chcesz skomentować artykuł musisz być zarejestrowany na stronie.