EXSite.pl - Portal ze wszystkim Mamy tutaj wszystko

NIE MASZ JESZCZE KONTA? ZAREJESTRUJ SIĘ ZA DARMO!   
Przypomnij hasło X

Tied In Blood (2012) DVDRip.XviD-UnKnOwN

Dodał: manitou666 3 Lipiec 2012 09:10



taniec Tied In Blood (2012) DVDRip.XviD-UnKnOwN taniec

Tied In Blood (2012) DVDRip.XviD-UnKnOwN


Tied In Blood (2012) DVDRip.XviD-UnKnOwN


Kraj: Wielka Brytania
Gatunek: Dramat | Horror | Mystery
Reżyseria: Matthew Lawrence
Scenariusz: David Ross


George, convinced a ghost killed his family, hires Robert, a talented Medium frustrated by his job. As the dead return to tell of ghostly seduction, demonic rage, and brutal murder, Robert discovers a horror more real than any ghost story.


INFO:
- W 1 /lub/ 2 partach tongue
- Format: AVI taniec
- x serwerów do wyboru brawo


SCRENY
Tied In Blood (2012) DVDRip.XviD-UnKnOwN



DANE TECHNICZNE





LINKI:

Wersja w 1 pliku / x SERWERÓW DO WYBORU

--- ZAPRASZAM ---

Uwaga! Linki nie zakodowane tylko dla zarejestrowanych użytkowników!

Nie masz konta? Zarejestruj się za darmo!
----------------
Links are not encoded only for registered users only! Plese login or register!


[b][center]


Zobacz więcej moich newsów




Użytkownik VIP

nakacu22VIP

#1 | Dodany: 3 Lipiec 2012 10:50

Tied In Blood (2012)


Tied In Blood (2012) DVDRip.XviD-UnKnOwN


...::: Dane Techniczne :::..


Rozmiar pliku: 824.1 MiB (864171404 bajtów)
Czas trwania: 01:26:15.003 (5175003 ms)
Ogólne bitrate pliku: 1 336 Kbps
Format: AVI

Video FPS: 29.970
Video kodek: XviD
Video bitrate: 1 132 Kbps
Video rozdzielczość: 680x384
Video rozmiar: 698 MiB (85%)
Video proporcje obrazu: 16:9

Audio format: AC-3
Audio format wynik: Audio Coding 3
Audio bitrate: 192 Kbps
Audio liczba kanałów: 2
Audio sampling rate: 48.0 KHz
Audio resolution: 16 bits
Audio rozmiar: 118 MiB (14%)



Plik jest zabezpieczony hasłem
Archiwum rar. // pakowane win rar.
Nazwa celowo zmieniona // dzięki temu dłuższa żywotność linków.
Brak błędów crc. // archiwum testowane przed wysłaniem na filehosty.



TYLKO 1 LINK DO FILMU


Uwaga! Linki nie zakodowane tylko dla zarejestrowanych użytkowników!

Nie masz konta? Zarejestruj się za darmo!
----------------
Links are not encoded only for registered users only! Plese login or register!


Uwaga! Linki nie zakodowane tylko dla zarejestrowanych użytkowników!

Nie masz konta? Zarejestruj się za darmo!
----------------
Links are not encoded only for registered users only! Plese login or register!


Uwaga! Linki nie zakodowane tylko dla zarejestrowanych użytkowników!

Nie masz konta? Zarejestruj się za darmo!
----------------
Links are not encoded only for registered users only! Plese login or register!


Uwaga! Linki nie zakodowane tylko dla zarejestrowanych użytkowników!

Nie masz konta? Zarejestruj się za darmo!
----------------
Links are not encoded only for registered users only! Plese login or register!


Hasło archiwum: nakacu22
Powracam ;)
Użytkownik VIP

ClesedynaUżytkownik

#2 | Dodany: 3 Lipiec 2012 11:16

Tied In Blood (2012) DVDRip Xvid UnKnOwN

Encoded By .......:UnKnOwN
Runtime ..........:1:26
IMDb URL .........:http://www.imdb.com/title/tt1732160/
Language .........:English
File Size ........:862mb
Release Date ......... 2012
Source ......... Cheers M8
File Type ......... Single AVI
PS3 Compatible ....... Go For It
Genre ......... Horror/Mystery

Video

ID : 0
Format : MPEG-4 Visual
Format profile : Advanced Simple@L5
Format settings, BVOP : Yes
Format settings, QPel : No
Format settings, GMC : No warppoints
Format settings, Matrix : Custom
Codec ID : XVID
Codec ID/Hint : XviD
Duration : 1h 26mn
Bit rate : 1600kbps
Width : 688pixels
Height : 384pixels
Display aspect ratio : 16:9
Frame rate : 23.997fps
Color space : YUV
Chroma subsampling : 4:2:0
Bit depth : 8 bits
Scan type : Progressive
Bits/(Pixel*Frame) : 0.234
Stream size : 892 MiB (86%)
Writing library : XviD 1.2.1 (UTC 2008-12-04)

Audio

ID : 1
Format : AC3
Format/Info : MPEG
Mode extension : CM (complete main)
Codec ID : 2000
Duration : 1h 26mn
Bit rate mode : Constant
Bit rate : 128kbps
Channel(s) : 2channels
Channel positions : Front: L R
Sampling rate : 48.0 KHz
Bit depth : 16 bits
Stream size : 302 MiB
Alignment : Aligned on interleaves
Interleave, duration : 42 ms (1.00 video frame)
Interleave, preload duration : 512 ms

Uwaga! Linki nie zakodowane tylko dla zarejestrowanych użytkowników!

Nie masz konta? Zarejestruj się za darmo!
----------------
Links are not encoded only for registered users only! Plese login or register!


lub

Uwaga! Linki nie zakodowane tylko dla zarejestrowanych użytkowników!

Nie masz konta? Zarejestruj się za darmo!
----------------
Links are not encoded only for registered users only! Plese login or register!
Użytkownik VIP

freepixUżytkownik

#3 | Dodany: 4 Lipiec 2012 17:12

Tied In Blood (2012) DVDRip Xvid UnKnOwN

Info:

Release Name: Tied.In.Blood.2012.DVDRip.Xvid-UnKnOwN
Size: 863 MB
Video: XviD, 688 x 384, 1600kbps
Audio: English, AC3, 128 Kbps
Runtime: 1h 26mn


Download:


http://rapidgator.net/file/22748021/tibUnKnOwN.avi.html


No Password

Informacje

Jeżeli chcesz skomentować artykuł musisz być zarejestrowany na stronie.