EXSite.pl - Portal ze wszystkim Mamy tutaj wszystko

NIE MASZ JESZCZE KONTA? ZAREJESTRUJ SIĘ ZA DARMO!   
Przypomnij hasło X

All Alone (2010) DVDRip.XviD-F0RFUN

Dodał: djkazik 17 Lipiec 2012 09:35



All Alone (2010) DVDRip.XviD-F0RFUN

All Alone (2010) DVDRip.XviD-F0RFUN

###Info:###

czas trwania: 1 godz. 30 min.
gatunek: Thriller
produkcja: USA
reżyseria: Jon Cellini
scenariusz: Jon Cellini

###Opis:###

Dysfunkcyjne małże?stwo Maggie (Mandy Levin) Ben (Brice Williams), zapraszają na kolację, znajomą parę Alex (Suzy Cote) i Kyle (David Jones). W trakcie rozmowy dochodzą do wniosku, że przydałby się im odpoczynek. Decydują się więc na weekendowy kemping. Podczas wyprawy, Ben i Alex wdają się w romans, w wyniku którego obmyślają radykalny plan pozbycia się partnerów.

###Dane Techniczne:###



###Screeny:###

All Alone (2010) DVDRip.XviD-F0RFUN

All Alone (2010) DVDRip.XviD-F0RFUN

All Alone (2010) DVDRip.XviD-F0RFUN


###Można ściągać naprzemian!###
###1% Recovery Data / 1% Danych Naprawczych###
###1GB PARTS###


Uwaga! Linki nie zakodowane tylko dla zarejestrowanych użytkowników!

Nie masz konta? Zarejestruj się za darmo!
----------------
Links are not encoded only for registered users only! Plese login or register!


Uwaga! Linki nie zakodowane tylko dla zarejestrowanych użytkowników!

Nie masz konta? Zarejestruj się za darmo!
----------------
Links are not encoded only for registered users only! Plese login or register!


Uwaga! Linki nie zakodowane tylko dla zarejestrowanych użytkowników!

Nie masz konta? Zarejestruj się za darmo!
----------------
Links are not encoded only for registered users only! Plese login or register!


Uwaga! Linki nie zakodowane tylko dla zarejestrowanych użytkowników!

Nie masz konta? Zarejestruj się za darmo!
----------------
Links are not encoded only for registered users only! Plese login or register!


Użytkownik VIP

nakacu22VIP

#1 | Dodany: 17 Lipiec 2012 12:22

All Alone (2010)


All Alone (2010) DVDRip.XviD-F0RFUN


...::: Dane Techniczne :::..


General
Complete name: All.Alone.2010.DVDRip.XviD-F0RFUN.avi
Format: AVI
Format/Info: Audio Video Interleave
File size: 701 MiB
Duration: 1h 26mn
Overall bit rate mode: Variable
Overall bit rate: 1 134 Kbps
Writing library: VirtualDubMod build 2550/release

Video
ID: 0
Format: MPEG-4 Visual
Format profile: Advanced Simple@L5
Format settings, BVOP: 1
Format settings, QPel: No
Format settings, GMC: No warppoints
Format settings, Matrix: Default (H.263)
Codec ID: XVID
Codec ID/Hint: XviD
Duration: 1h 26mn
Bit rate: 1 000 Kbps
Width: 640 pixels
Height: 344 pixels
Display aspect ratio: 1.860
Frame rate: 23.976 fps
Color space: YUV
Chroma subsampling: 4:2:0
Bit depth: 8 bits
Scan type: Progressive
Compression mode: Lossy
Bits/(Pixel*Frame): 0.189
Stream size: 619 MiB (88%)
Writing library: XviD 1.2.1 (UTC 2008-12-04)

Audio
ID: 1
Format: MPEG Audio
Format version: Version 1
Format profile: Layer 3
Codec ID: 55
Codec ID/Hint: MP3
Duration: 1h 26mn
Bit rate mode: Variable
Bit rate: 121 Kbps
Nominal bit rate: 128 Kbps
Channel(s): 2 channels
Sampling rate: 48.0 KHz
Compression mode: Lossy
Stream size: 74.7 MiB (11%)
Alignment: Aligned on interleaves
Interleave, duration: 24 ms (0.58 video frame)
Interleave, preload duration: 152 ms
Writing library: LAME3.98r
Encoding settings: -m s -V 4 -q 2 -lowpass 17 --abr 128



Plik jest zabezpieczony hasłem
Archiwum rar. // pakowane win rar.
Nazwa celowo zmieniona // dzięki temu dłuższa żywotność linków.
Brak błędów crc. // archiwum testowane przed wysłaniem na filehosty.



TYLKO 1 LINK DO FILMU


Uwaga! Linki nie zakodowane tylko dla zarejestrowanych użytkowników!

Nie masz konta? Zarejestruj się za darmo!
----------------
Links are not encoded only for registered users only! Plese login or register!


Uwaga! Linki nie zakodowane tylko dla zarejestrowanych użytkowników!

Nie masz konta? Zarejestruj się za darmo!
----------------
Links are not encoded only for registered users only! Plese login or register!


Uwaga! Linki nie zakodowane tylko dla zarejestrowanych użytkowników!

Nie masz konta? Zarejestruj się za darmo!
----------------
Links are not encoded only for registered users only! Plese login or register!



Hasło archiwum: nakacu22
Powracam ;)

Informacje

Jeżeli chcesz skomentować artykuł musisz być zarejestrowany na stronie.