EXSite.pl - Portal ze wszystkim Mamy tutaj wszystko

NIE MASZ JESZCZE KONTA? ZAREJESTRUJ SIĘ ZA DARMO!   
Przypomnij hasło X

You're Nobody 'til Somebody Kills You (2012) DVDRip.XviD-F0RFUN

Dodał: djkazik 18 Lipiec 2012 12:18



You're Nobody 'til Somebody Kills You (2012) DVDRip.XviD-F0RFUN

You're Nobody 'til Somebody Kills You (2012) DVDRip.XviD-F0RFUN

###Info:###

czas trwania: 1 godz. 26 min.
gatunek: Thriller
premiera: 4 listopada 2011 (świat)
produkcja: USA
reżyseria: Michael A. Pinckney
scenariusz: Michael A. Pinckney

###Opis:###

Morderstwa, seks, pieniądze i muzyka w filmie w którym para detektywów szuka bezwzględnego mordercy, który na celownik wziął środowisko hip-hopu.

###Dane Techniczne:###



###Screeny:###

You're Nobody 'til Somebody Kills You (2012) DVDRip.XviD-F0RFUN

You're Nobody 'til Somebody Kills You (2012) DVDRip.XviD-F0RFUN

You're Nobody 'til Somebody Kills You (2012) DVDRip.XviD-F0RFUN


###Można ściągać naprzemian!###
###1% Recovery Data / 1% Danych Naprawczych###
###1GB PARTS###


Uwaga! Linki nie zakodowane tylko dla zarejestrowanych użytkowników!

Nie masz konta? Zarejestruj się za darmo!
----------------
Links are not encoded only for registered users only! Plese login or register!


Uwaga! Linki nie zakodowane tylko dla zarejestrowanych użytkowników!

Nie masz konta? Zarejestruj się za darmo!
----------------
Links are not encoded only for registered users only! Plese login or register!


Uwaga! Linki nie zakodowane tylko dla zarejestrowanych użytkowników!

Nie masz konta? Zarejestruj się za darmo!
----------------
Links are not encoded only for registered users only! Plese login or register!


Uwaga! Linki nie zakodowane tylko dla zarejestrowanych użytkowników!

Nie masz konta? Zarejestruj się za darmo!
----------------
Links are not encoded only for registered users only! Plese login or register!


Użytkownik VIP

nakacu22VIP

#1 | Dodany: 18 Lipiec 2012 15:01

You're Nobody 'til Somebody Kills You (2012)


You're Nobody 'til Somebody Kills You (2012) DVDRip.XviD-F0RFUN


...::: Dane Techniczne :::..


General
Complete name: Youre.Nobody.Til.Somebody.Kills.You.2012.DVDRip.XviD-F0RFUN.avi
Format: AVI
Format/Info: Audio Video Interleave
File size: 1.37 GiB
Duration: 1h 26mn
Overall bit rate: 2 264 Kbps
Writing application: VirtualDubMod 1.5.10.3 | www.virtualdub-fr.org || (build 2550/release)
Writing library: VirtualDubMod build 2550/release

Video
ID: 0
Format: MPEG-4 Visual
Format profile: Advanced Simple@L5
Format settings, BVOP: 1
Format settings, QPel: No
Format settings, GMC: No warppoints
Format settings, Matrix: Default (MPEG)
Codec ID: XVID
Codec ID/Hint: XviD
Duration: 1h 26mn
Bit rate: 1 807 Kbps
Width: 720 pixels
Height: 408 pixels
Display aspect ratio: 16:9
Frame rate: 23.976 fps
Color space: YUV
Chroma subsampling: 4:2:0
Bit depth: 8 bits
Scan type: Progressive
Compression mode: Lossy
Bits/(Pixel*Frame): 0.257
Stream size: 1.09 GiB (80%)
Writing library: XviD 1.2.1 (UTC 2008-12-04)

Audio
ID: 1
Format: AC-3
Format/Info: Audio Coding 3
Mode extension: CM (complete main)
Codec ID: 2000
Duration: 1h 26mn
Bit rate mode: Constant
Bit rate: 448 Kbps
Channel(s): 6 channels
Channel positions: Front: L C R, Side: L R, LFE
Sampling rate: 48.0 KHz
Bit depth: 16 bits
Compression mode: Lossy
Stream size: 277 MiB (20%)
Alignment: Split accross interleaves
Interleave, duration: 42 ms (1.00 video frame)
Interleave, preload duration: 500 ms



Plik jest zabezpieczony hasłem
Archiwum rar. // pakowane win rar.
Nazwa celowo zmieniona // dzięki temu dłuższa żywotność linków.
Brak błędów crc. // archiwum testowane przed wysłaniem na filehosty.



TYLKO 1 LINK DO FILMU


Uwaga! Linki nie zakodowane tylko dla zarejestrowanych użytkowników!

Nie masz konta? Zarejestruj się za darmo!
----------------
Links are not encoded only for registered users only! Plese login or register!


Uwaga! Linki nie zakodowane tylko dla zarejestrowanych użytkowników!

Nie masz konta? Zarejestruj się za darmo!
----------------
Links are not encoded only for registered users only! Plese login or register!


Uwaga! Linki nie zakodowane tylko dla zarejestrowanych użytkowników!

Nie masz konta? Zarejestruj się za darmo!
----------------
Links are not encoded only for registered users only! Plese login or register!



Hasło archiwum: nakacu22
Powracam ;)

Informacje

Jeżeli chcesz skomentować artykuł musisz być zarejestrowany na stronie.