EXSite.pl - Portal ze wszystkim Mamy tutaj wszystko

NIE MASZ JESZCZE KONTA? ZAREJESTRUJ SIĘ ZA DARMO!   
Przypomnij hasło X

The Babymakers (2012) DVDRiP.XViD-DUQA

Dodał: UP-PARADiSE 11 Sierpień 2012 18:09



The Babymakers (2012) DVDRiP.XViD-DUQA


The Babymakers (2012) DVDRiP.XViD-DUQA

czas trwania: 1 godz. 38 min.
gatunek: Komedia, Przygodowy
premiera: 3 sierpnia 2012 (świat)
produkcja: USA
reżyseria: Jay Chandrasekhar
scenariusz: Peter Gaulke, Gerry Swallow



Najpierw można negocjować i próbować załatwiać sprawy drogą legalną. Gdy to zawiedzie, każdy facet doprowadzony do ściany, wziąłby w ko?cu sprawy w swoje ręce. Od czego ma się też przyjaciół? Nikt przecież przy zdrowych zmysłach, nie podjąłby się organizacji takiej akcji, w pojedynkę! Główny bohater filmu grany przez Paula Schneidera rozpocznie wyścig z czasem napadając na bank, ale nie na byle jaki bank, bo na bank... spermy.

DANE TECHNiCZNE:
Babymakers.2012.DVDRiP-DUQA.avi
Format                                   : AVI
Format/Info                              : Audio Video Interleave
File size                                : 1.13 GiB
Duration                                 : 1h 35mn
Overall bit rate                         : 1 688 Kbps
Writing library                          : MPlayer

Video
ID                                       : 0
Format                                   : MPEG-4 Visual
Format profile                           : Simple@L1
Format settings, BVOP                    : No
Format settings, QPel                    : No
Format settings, GMC                     : No warppoints
Format settings, Matrix                  : Default (H.263)
Codec ID                                 : DX50
Codec ID/Hint                            : DivX 5
Duration                                 : 1h 35mn
Bit rate                                 : 1 420 Kbps
Width                                    : 720 pixels
Height                                   : 300 pixels
Display aspect ratio                     : 2.40:1
Frame rate                               : 23.976 fps
Color space                              : YUV
Chroma subsampling                       : 4:2:0
Bit depth                                : 8 bits
Scan type                                : Interlaced
Scan order                               : Top Field First
Compression mode                         : Lossy
Bits/(Pixel*Frame)                       : 0.274
Stream size                              : 971 MiB (84%)
Writing library                          : Lavc52.0.0

Audio
ID                                       : 1
Format                                   : MPEG Audio
Format version                           : Version 1
Format profile                           : Layer 3
Mode                                     : Joint stereo
Mode extension                           : MS Stereo
Codec ID                                 : 55
Codec ID/Hint                            : MP3
Duration                                 : 1h 35mn
Bit rate mode                            : Constant
Bit rate                                 : 256 Kbps
Channel(s)                               : 2 channels
Sampling rate                            : 44.1 KHz
Compression mode                         : Lossy
Stream size                              : 175 MiB (15%)
Alignment                                : Aligned on interleaves
Interleave, duration                     : 26 ms (0.63 video frame)
Interleave, preload duration             : 809 ms
Writing library                          : LAME3.97



DOWNLOAD
1 PLiK BEZ WYPAKOWANIA




TURBOBiT

http://turbobit.net/9f9i6jstogtt/The Babymakers.2012.DVDRiP-DUQA.avi.html


HELLSHARE

http://download.hellshare.pl/the-babymakers-2012-dvdrip-duqa-avi/8511364/


FASTSHARE

http://www.fastshare.cz/1595399/the-babymakers.2012.dvdrip-duqa.avi

Użytkownik VIP

ssoberUżytkownik

#1 | Dodany: 11 Sierpień 2012 18:12

brawo
Użytkownik VIP

valFannUżytkownik

#2 | Dodany: 6 Luty 2013 18:21

Uwaga! Linki nie zakodowane tylko dla zarejestrowanych użytkowników!

Nie masz konta? Zarejestruj się za darmo!
----------------
Links are not encoded only for registered users only! Plese login or register!
Użytkownik VIP

Abbadon666Użytkownik

#3 | Dodany: 28 Luty 2013 09:43

http://catshare.net/3qTS7NiibahUuS0E/The.Babymakers.2012.LIMITED.BRRip.XviD-MeRCuRY.avi

Informacje

Jeżeli chcesz skomentować artykuł musisz być zarejestrowany na stronie.